<?xml version="1.0" standalone="no"?>
<!DOCTYPE svg PUBLIC "-//W3C//DTD SVG 1.1//EN" "http://www.w3.org/Graphics/SVG/1.1/DTD/svg11.dtd" >
<svg xmlns="http://www.w3.org/2000/svg" xmlns:xlink="http://www.w3.org/1999/xlink" version="1.1">
<metadata>
Created by FontForge 20161116 at Tue May 26 01:50:59 2015
 By Jimmy Wärting
Copyright (c) 2012-2015, Omnibus-Type (www.omnibus-type.com omnibus.type@gmail.com)
</metadata>
<defs>
<font id="PragatiNarrow-Bold" horiz-adv-x="268" >
  <font-face 
    font-family="Pragati Narrow"
    font-weight="700"
    font-stretch="normal"
    units-per-em="1000"
    panose-1="2 11 8 6 2 2 2 2 11 4"
    ascent="800"
    descent="-200"
    x-height="484"
    cap-height="630"
    bbox="-574 -534 2259 1158"
    underline-thickness="50"
    underline-position="-100"
    unicode-range="U+000C-FB02"
  />
<missing-glyph horiz-adv-x="460" 
d="M0 644h460v-644h-460v644zM386 598h-312l156 -235zM46 556v-469l156 234zM414 556l-156 -235l156 -234v469zM230 281l-156 -235h312z" />
    <glyph glyph-name="fi" unicode="fi" horiz-adv-x="461" 
d="M213.5 669q23.5 -3 37.5 -8v-82h-45q-39 0 -39 -39v-56h84v-93h-84v-391h-110v391h-49v93h49v59q0 55 26.5 92t87.5 37q19 0 42.5 -3zM301 665h110v-100h-110v100zM301 484h110v-484h-110v484z" />
    <glyph glyph-name="fl" unicode="fl" horiz-adv-x="461" 
d="M213.5 669q23.5 -3 37.5 -8v-82h-45q-39 0 -39 -39v-56h84v-93h-84v-391h-110v391h-49v93h49v59q0 55 26.5 92t87.5 37q19 0 42.5 -3zM301 665h110v-665h-110v665z" />
    <glyph glyph-name=".notdef" horiz-adv-x="460" 
d="M0 644h460v-644h-460v644zM386 598h-312l156 -235zM46 556v-469l156 234zM414 556l-156 -235l156 -234v469zM230 281l-156 -235h312z" />
    <glyph glyph-name="NULL" horiz-adv-x="0" 
 />
    <glyph glyph-name="nonmarkingreturn" unicode="&#xd;" horiz-adv-x="0" 
 />
    <glyph glyph-name="space" unicode=" " horiz-adv-x="210" 
 />
    <glyph glyph-name="A" unicode="A" horiz-adv-x="544" 
d="M423 0l-38 124h-233l-38 -124h-114l203 630h137l203 -630h-120zM260 487q-5 -29 -11 -47l-65 -211h169l-64 211q-6 20 -12 48t-7 37h-4q-1 -9 -6 -38z" />
    <glyph glyph-name="Aacute" unicode="&#xc1;" horiz-adv-x="544" 
d="M300 691h-91l79 121h110l1 -3zM423 0l-38 124h-233l-38 -124h-114l203 630h137l203 -630h-120zM260 487q-5 -29 -11 -47l-65 -211h169l-64 211q-6 20 -12 48t-7 37h-4q-1 -9 -6 -38z" />
    <glyph glyph-name="Abreve" unicode="&#x102;" horiz-adv-x="544" 
d="M379.5 765q-15.5 -23 -44 -37.5t-64.5 -14.5t-63.5 14.5t-42.5 37.5t-15 47h68q2 -11 17 -21t36 -10q23 0 39 10t17 21h68q0 -24 -15.5 -47zM423 0l-38 124h-233l-38 -124h-114l203 630h137l203 -630h-120zM260 487q-5 -29 -11 -47l-65 -211h169l-64 211q-6 20 -12 48
t-7 37h-4q-1 -9 -6 -38z" />
    <glyph glyph-name="Acircumflex" unicode="&#xc2;" horiz-adv-x="544" 
d="M313 687l-41 64l-41 -64h-82l79 125h90l78 -125h-83zM423 0l-38 124h-233l-38 -124h-114l203 630h137l203 -630h-120zM260 487q-5 -29 -11 -47l-65 -211h169l-64 211q-6 20 -12 48t-7 37h-4q-1 -9 -6 -38z" />
    <glyph glyph-name="Adieresis" unicode="&#xc4;" horiz-adv-x="544" 
d="M147 711v101h91v-101h-91zM306 711v101h93v-101h-93zM423 0l-38 124h-233l-38 -124h-114l203 630h137l203 -630h-120zM260 487q-5 -29 -11 -47l-65 -211h169l-64 211q-6 20 -12 48t-7 37h-4q-1 -9 -6 -38z" />
    <glyph glyph-name="Agrave" unicode="&#xc0;" horiz-adv-x="544" 
d="M244 691l-98 118l1 3h110l79 -121h-92zM423 0l-38 124h-233l-38 -124h-114l203 630h137l203 -630h-120zM260 487q-5 -29 -11 -47l-65 -211h169l-64 211q-6 20 -12 48t-7 37h-4q-1 -9 -6 -38z" />
    <glyph glyph-name="Amacron" unicode="&#x100;" horiz-adv-x="544" 
d="M155 698v80h235v-80h-235zM423 0l-38 124h-233l-38 -124h-114l203 630h137l203 -630h-120zM260 487q-5 -29 -11 -47l-65 -211h169l-64 211q-6 20 -12 48t-7 37h-4q-1 -9 -6 -38z" />
    <glyph glyph-name="Aogonek" unicode="&#x104;" horiz-adv-x="544" 
d="M577 -111v-51q-30 -13 -60 -13q-38 0 -65 20t-27 63q0 27 9 44.5t19.5 30.5t13.5 17h-44l-38 124h-233l-38 -124h-114l203 630h137l203 -630q-10 -9 -18.5 -26.5t-8.5 -37.5t10 -33.5t31 -13.5h20zM353 229l-64 211q-6 20 -12 48t-7 37h-4q-1 -9 -6 -38t-11 -47l-65 -211
h169z" />
    <glyph glyph-name="Aring" unicode="&#xc5;" horiz-adv-x="544" 
d="M335 813q26 -26 26 -62q0 -37 -26 -63t-63 -26q-36 0 -62 26t-26 63t26 62.5t62 25.5q37 0 63 -26zM242.5 781.5q-12.5 -12.5 -12.5 -30.5t12.5 -30t29.5 -12t29.5 12t12.5 30t-12.5 30.5t-29.5 12.5t-29.5 -12.5zM423 0l-38 124h-233l-38 -124h-114l203 630h137
l203 -630h-120zM260 487q-5 -29 -11 -47l-65 -211h169l-64 211q-6 20 -12 48t-7 37h-4q-1 -9 -6 -38z" />
    <glyph glyph-name="Aringacute" unicode="&#x1fa;" horiz-adv-x="544" 
d="M233 780l64 100h111v-3l-85 -97h-90zM335 730q26 -25 26 -60q0 -27 -17 -51l199 -619h-120l-38 124h-233l-38 -124h-114l200 620q-16 19 -16 50q0 35 26 60t62 25q37 0 63 -25zM242 698q-12 -11 -12 -28q0 -18 12.5 -30t29.5 -12t29.5 12t12.5 30q0 17 -12 28t-30 11
t-30 -11zM260 487q-5 -29 -11 -47l-65 -211h169l-64 211q-6 20 -12 48t-7 37h-4q-1 -9 -6 -38z" />
    <glyph glyph-name="Atilde" unicode="&#xc3;" horiz-adv-x="544" 
d="M403 734q-23 -34 -67 -34q-15 0 -27.5 4t-35.5 13q-19 8 -32 12t-27 4q-16 0 -24.5 -7.5t-11.5 -25.5h-60q0 43 23 77.5t67 34.5q15 0 30 -4.5t34 -13.5q19 -8 32 -12t26 -4q15 0 24 7.5t12 26.5h60q0 -44 -23 -78zM423 0l-38 124h-233l-38 -124h-114l203 630h137
l203 -630h-120zM260 487q-5 -29 -11 -47l-65 -211h169l-64 211q-6 20 -12 48t-7 37h-4q-1 -9 -6 -38z" />
    <glyph glyph-name="AE" unicode="&#xc6;" horiz-adv-x="754" 
d="M402 526l38 -151h229v-105h-204l40 -165h209v-105h-303l-30 124h-233l-46 -124h-109l241 630h475v-104h-307zM281.5 485q-2.5 -9 -6.5 -17l-89 -239h170l-56 239l-9 34h-3q-4 -8 -6.5 -17z" />
    <glyph glyph-name="AEacute" unicode="&#x1fc;" horiz-adv-x="754" 
d="M405 691h-92l79 121h111v-3zM402 526l38 -151h229v-105h-204l40 -165h209v-105h-303l-30 124h-233l-46 -124h-109l241 630h475v-104h-307zM280 480l-9 -23l-85 -228h170l-54 231q-3 8 -6 21t-5 21h-3q-5 -12 -8 -22z" />
    <glyph glyph-name="B" unicode="B" horiz-adv-x="544" 
d="M449.5 586.5q48.5 -43.5 48.5 -112.5q0 -53 -27 -90.5t-70 -52.5v-3q49 -16 80.5 -58t31.5 -100q0 -52 -25 -90.5t-67.5 -59t-93.5 -20.5h-272v630h272q74 0 122.5 -43.5zM294 375q40 0 62 22.5t22 55.5q0 35 -21.5 54t-56.5 19h-127v-151h121zM307 105q38 0 61.5 20.5
t23.5 58.5q0 39 -23 63t-67 24h-129v-166h134z" />
    <glyph glyph-name="C" unicode="C" horiz-adv-x="544" 
d="M450.5 580.5q63.5 -61.5 63.5 -184.5h-121q0 71 -30 108t-81 37q-65 0 -97 -53t-32 -150v-46q0 -97 33.5 -149.5t99.5 -52.5q53 0 83 36.5t30 107.5h115q0 -120 -63.5 -182.5t-168.5 -62.5q-121 0 -186 81.5t-65 244.5q0 164 65 245.5t186 81.5q105 0 168.5 -61.5z" />
    <glyph glyph-name="Cacute" unicode="&#x106;" horiz-adv-x="544" 
d="M310 691h-92l79 121h111l1 -3zM450.5 580.5q63.5 -61.5 63.5 -184.5h-121q0 71 -30 108t-81 37q-65 0 -97 -53t-32 -150v-46q0 -97 33.5 -149.5t99.5 -52.5q53 0 83 36.5t30 107.5h115q0 -120 -63.5 -182.5t-168.5 -62.5q-121 0 -186 81.5t-65 244.5q0 164 65 245.5
t186 81.5q105 0 168.5 -61.5z" />
    <glyph glyph-name="Ccaron" unicode="&#x10c;" horiz-adv-x="544" 
d="M158 812h83l41 -63l41 63h83l-78 -125h-91zM450.5 580.5q63.5 -61.5 63.5 -184.5h-121q0 71 -30 108t-81 37q-65 0 -97 -53t-32 -150v-46q0 -97 33.5 -149.5t99.5 -52.5q53 0 83 36.5t30 107.5h115q0 -120 -63.5 -182.5t-168.5 -62.5q-121 0 -186 81.5t-65 244.5
q0 164 65 245.5t186 81.5q105 0 168.5 -61.5z" />
    <glyph glyph-name="Ccedilla" unicode="&#xc7;" horiz-adv-x="544" 
d="M450.5 580.5q63.5 -61.5 63.5 -184.5h-121q0 71 -30 108t-81 37q-65 0 -97 -53t-32 -150v-46q0 -97 33.5 -149.5t99.5 -52.5q53 0 83 36.5t30 107.5h115q0 -113 -57.5 -175.5t-152.5 -68.5l-2 -20q32 -2 52 -17.5t20 -45.5q0 -41 -30.5 -57.5t-69.5 -16.5q-40 0 -77 7v45
h65q33 0 33 22q0 12 -7 17t-24 5h-30l7 63q-102 12 -156 92.5t-54 230.5q0 164 65 245.5t186 81.5q105 0 168.5 -61.5z" />
    <glyph glyph-name="Ccircumflex" unicode="&#x108;" horiz-adv-x="544" 
d="M282 751l-41 -64h-83l79 125h91l78 -125h-83zM450.5 580.5q63.5 -61.5 63.5 -184.5h-121q0 71 -30 108t-81 37q-65 0 -97 -53t-32 -150v-46q0 -97 33.5 -149.5t99.5 -52.5q53 0 83 36.5t30 107.5h115q0 -120 -63.5 -182.5t-168.5 -62.5q-121 0 -186 81.5t-65 244.5
q0 164 65 245.5t186 81.5q105 0 168.5 -61.5z" />
    <glyph glyph-name="Cdotaccent" unicode="&#x10a;" horiz-adv-x="544" 
d="M233 812h98v-106h-98v106zM450.5 580.5q63.5 -61.5 63.5 -184.5h-121q0 71 -30 108t-81 37q-65 0 -97 -53t-32 -150v-46q0 -97 33.5 -149.5t99.5 -52.5q53 0 83 36.5t30 107.5h115q0 -120 -63.5 -182.5t-168.5 -62.5q-121 0 -186 81.5t-65 244.5q0 164 65 245.5t186 81.5
q105 0 168.5 -61.5z" />
    <glyph glyph-name="D" unicode="D" horiz-adv-x="544" 
d="M260 630q120 0 186.5 -78t66.5 -228q0 -159 -66.5 -241.5t-186.5 -82.5h-205v630h205zM250 105q67 0 104.5 50.5t37.5 146.5v45q0 88 -37.5 133.5t-104.5 45.5h-77v-421h77z" />
    <glyph glyph-name="Eth" unicode="&#xd0;" horiz-adv-x="544" 
d="M55 630h205q120 0 186.5 -78t66.5 -228q0 -159 -66.5 -241.5t-186.5 -82.5h-205v287h-46v78h46v265zM288 365v-78h-115v-182h77q67 0 104.5 50.5t37.5 146.5v45q0 88 -37.5 133.5t-104.5 45.5h-77v-161h115z" />
    <glyph glyph-name="Dcaron" unicode="&#x10e;" horiz-adv-x="544" 
d="M109 812h83l42 -63l40 63h83l-78 -125h-91zM260 630q120 0 186.5 -78t66.5 -228q0 -159 -66.5 -241.5t-186.5 -82.5h-205v630h205zM250 105q67 0 104.5 50.5t37.5 146.5v45q0 88 -37.5 133.5t-104.5 45.5h-77v-421h77z" />
    <glyph glyph-name="Dcroat" unicode="&#x110;" horiz-adv-x="544" 
d="M55 630h205q120 0 186.5 -78t66.5 -228q0 -159 -66.5 -241.5t-186.5 -82.5h-205v287h-46v78h46v265zM288 365v-78h-115v-182h77q67 0 104.5 50.5t37.5 146.5v45q0 88 -37.5 133.5t-104.5 45.5h-77v-161h115z" />
    <glyph glyph-name="E" unicode="E" horiz-adv-x="503" 
d="M457 630v-104h-284v-151h243v-105h-243v-165h290v-105h-408v630h402z" />
    <glyph glyph-name="Eacute" unicode="&#xc9;" horiz-adv-x="503" 
d="M280 691h-92l79 121h111l1 -3zM173 526v-151h243v-105h-243v-165h290v-105h-408v630h402v-104h-284z" />
    <glyph glyph-name="Ebreve" unicode="&#x114;" horiz-adv-x="503" 
d="M359 765q-15 -23 -43 -37.5t-65 -14.5q-36 0 -64 14.5t-43 37.5t-15 47h68q3 -11 18 -21t36 -10q22 0 38 10t17 21h68q0 -24 -15 -47zM457 630v-104h-284v-151h243v-105h-243v-165h290v-105h-408v630h402z" />
    <glyph glyph-name="Ecaron" unicode="&#x11a;" horiz-adv-x="503" 
d="M128 812h82l42 -63l40 63h83l-78 -125h-90zM457 630v-104h-284v-151h243v-105h-243v-165h290v-105h-408v630h402z" />
    <glyph glyph-name="Ecircumflex" unicode="&#xca;" horiz-adv-x="503" 
d="M252 751l-42 -64h-82l79 125h90l78 -125h-83zM457 630v-104h-284v-151h243v-105h-243v-165h290v-105h-408v630h402z" />
    <glyph glyph-name="Edieresis" unicode="&#xcb;" horiz-adv-x="503" 
d="M125 711v101h92v-101h-92zM286 711v101h92v-101h-92zM173 526v-151h243v-105h-243v-165h290v-105h-408v630h402v-104h-284z" />
    <glyph glyph-name="Edotaccent" unicode="&#x116;" horiz-adv-x="503" 
d="M202 812h99v-106h-99v106zM457 630v-104h-284v-151h243v-105h-243v-165h290v-105h-408v630h402z" />
    <glyph glyph-name="Egrave" unicode="&#xc8;" horiz-adv-x="503" 
d="M224 691l-100 118l1 3h110l79 -121h-90zM173 526v-151h243v-105h-243v-165h290v-105h-408v630h402v-104h-284z" />
    <glyph glyph-name="Emacron" unicode="&#x112;" horiz-adv-x="503" 
d="M134 778h234v-80h-234v80zM457 630v-104h-284v-151h243v-105h-243v-165h290v-105h-408v630h402z" />
    <glyph glyph-name="Eogonek" unicode="&#x118;" horiz-adv-x="503" 
d="M173 375h243v-105h-243v-165h290v-105q-11 -11 -19.5 -28.5t-8.5 -35.5q0 -20 10 -33.5t31 -13.5h20v-51q-30 -13 -60 -13q-38 0 -65 20t-27 63q0 29 10.5 50.5t30.5 41.5h-330v630h402v-104h-284v-151z" />
    <glyph glyph-name="F" unicode="F" horiz-adv-x="461" 
d="M425 630v-104h-252v-159h216v-105h-216v-262h-118v630h370z" />
    <glyph glyph-name="G" unicode="G" horiz-adv-x="587" 
d="M278 343h262v-343h-76l-21 70q-30 -39 -74 -60t-94 -21q-118 0 -181 81t-63 245t69 245.5t198 81.5q65 0 120.5 -27t88.5 -79.5t33 -125.5h-121q0 61 -35.5 96t-88.5 35q-72 0 -107 -53t-35 -150v-46q0 -99 35.5 -150.5t107.5 -51.5q55 0 89 41.5t34 109.5h-141v102z" />
    <glyph glyph-name="Gbreve" unicode="&#x11e;" horiz-adv-x="587" 
d="M229 727.5q-28 14.5 -43 37.5t-15 47h68q2 -11 17.5 -21t36.5 -10q22 0 37.5 10t17.5 21h68q0 -24 -15.5 -47t-43.5 -37.5t-64 -14.5t-64 14.5zM278 343h262v-343h-76l-21 70q-30 -39 -74 -60t-94 -21q-118 0 -181 81t-63 245t69 245.5t198 81.5q65 0 120.5 -27
t88.5 -79.5t33 -125.5h-121q0 61 -35.5 96t-88.5 35q-72 0 -107 -53t-35 -150v-46q0 -99 35.5 -150.5t107.5 -51.5q55 0 89 41.5t34 109.5h-141v102z" />
    <glyph glyph-name="Gcircumflex" unicode="&#x11c;" horiz-adv-x="587" 
d="M253 687h-82l79 125h89l78 -125h-82l-41 64zM278 343h262v-343h-76l-21 70q-30 -39 -74 -60t-94 -21q-118 0 -181 81t-63 245t69 245.5t198 81.5q65 0 120.5 -27t88.5 -79.5t33 -125.5h-121q0 61 -35.5 96t-88.5 35q-72 0 -107 -53t-35 -150v-46q0 -99 35.5 -150.5
t107.5 -51.5q55 0 89 41.5t34 109.5h-141v102z" />
    <glyph glyph-name="Gcommaaccent" unicode="&#x122;" horiz-adv-x="587" 
d="M278 343h262v-343h-76l-21 70q-30 -39 -74 -60t-94 -21q-118 0 -181 81t-63 245t69 245.5t198 81.5q65 0 120.5 -27t88.5 -79.5t33 -125.5h-121q0 61 -35.5 96t-88.5 35q-72 0 -107 -53t-35 -150v-46q0 -99 35.5 -150.5t107.5 -51.5q55 0 89 41.5t34 109.5h-141v102z
M223 -51h113v-103l-42 -87h-60l33 78h-44v112z" />
    <glyph glyph-name="Gdotaccent" unicode="&#x120;" horiz-adv-x="587" 
d="M343 706h-99v106h99v-106zM278 343h262v-343h-76l-21 70q-30 -39 -74 -60t-94 -21q-118 0 -181 81t-63 245t69 245.5t198 81.5q65 0 120.5 -27t88.5 -79.5t33 -125.5h-121q0 61 -35.5 96t-88.5 35q-72 0 -107 -53t-35 -150v-46q0 -99 35.5 -150.5t107.5 -51.5
q55 0 89 41.5t34 109.5h-141v102z" />
    <glyph glyph-name="H" unicode="H" horiz-adv-x="544" 
d="M371 0v270h-198v-270h-118v630h118v-255h198v255h118v-630h-118z" />
    <glyph glyph-name="Hbar" unicode="&#x126;" horiz-adv-x="544" 
d="M489 0h-118v264h-198v-264h-118v450h-46v80h46v100h118v-100h198v100h118v-100h46v-80h-46v-450zM173 450v-82h198v82h-198z" />
    <glyph glyph-name="Hcircumflex" unicode="&#x124;" horiz-adv-x="544" 
d="M313 687l-41 64l-41 -64h-82l79 125h90l78 -125h-83zM371 0v270h-198v-270h-118v630h118v-255h198v255h118v-630h-118z" />
    <glyph glyph-name="I" unicode="I" horiz-adv-x="210" 
d="M46 630h117v-630h-117v630z" />
    <glyph glyph-name="IJ" unicode="&#x132;" horiz-adv-x="629" 
d="M46 0v630h117v-630h-117zM528 30q-46 -41 -132 -41t-132 41.5t-46 119.5v49h117v-40q0 -34 15.5 -51.5t45.5 -17.5q60 0 60 69v471h118v-480q0 -79 -46 -120z" />
    <glyph glyph-name="Iacute" unicode="&#xcd;" horiz-adv-x="210" 
d="M133 691h-91l79 121h110l1 -3zM46 0v630h117v-630h-117z" />
    <glyph glyph-name="Ibreve" unicode="&#x12c;" horiz-adv-x="210" 
d="M212.5 765q-15.5 -23 -43.5 -37.5t-64 -14.5t-64.5 14.5t-44 37.5t-15.5 47h70q2 -11 17.5 -21t36.5 -10q22 0 37.5 10t17.5 21h68q0 -24 -15.5 -47zM46 630h117v-630h-117v630z" />
    <glyph glyph-name="Icircumflex" unicode="&#xce;" horiz-adv-x="210" 
d="M106 751l-42 -64h-84l80 125h91l78 -125h-82zM46 630h117v-630h-117v630z" />
    <glyph glyph-name="Idieresis" unicode="&#xcf;" horiz-adv-x="210" 
d="M-21 711v101h92v-101h-92zM139 711v101h93v-101h-93zM46 0v630h117v-630h-117z" />
    <glyph glyph-name="Idotaccent" unicode="&#x130;" horiz-adv-x="210" 
d="M56 812h99v-106h-99v106zM46 630h117v-630h-117v630z" />
    <glyph glyph-name="Igrave" unicode="&#xcc;" horiz-adv-x="210" 
d="M77 691l-99 118l1 3h110l79 -121h-91zM46 0v630h117v-630h-117z" />
    <glyph glyph-name="Imacron" unicode="&#x12a;" horiz-adv-x="210" 
d="M-12 778h235v-80h-235v80zM46 630h117v-630h-117v630z" />
    <glyph glyph-name="Iogonek" unicode="&#x12e;" horiz-adv-x="210" 
d="M136 -64q0 -20 10 -33.5t32 -13.5h20v-51q-30 -13 -61 -13q-36 0 -63.5 20t-27.5 63q0 30 10.5 51t29.5 41h-40v630h117v-630q-27 -36 -27 -64z" />
    <glyph glyph-name="Itilde" unicode="&#x128;" horiz-adv-x="210" 
d="M237 734q-23 -34 -67 -34q-15 0 -28.5 4t-35.5 13q-19 8 -32 12t-26 4q-16 0 -24.5 -7.5t-12.5 -25.5h-61q0 43 23 77.5t68 34.5q15 0 30 -4.5t34 -13.5q19 -8 32 -12t26 -4q16 0 24 7.5t12 26.5h61q0 -44 -23 -78zM46 630h117v-630h-117v630z" />
    <glyph glyph-name="J" unicode="J" horiz-adv-x="419" 
d="M318 30q-46 -41 -132 -41q-85 0 -131.5 41.5t-46.5 119.5v49h117v-40q0 -34 16 -51.5t45 -17.5q60 0 60 69v471h118v-480q0 -79 -46 -120z" />
    <glyph glyph-name="Jcircumflex" unicode="&#x134;" horiz-adv-x="419" 
d="M359 687l-42 64l-41 -64h-83l79 125h91l77 -125h-81zM318 30q-46 -41 -132 -41q-85 0 -131.5 41.5t-46.5 119.5v49h117v-40q0 -34 16 -51.5t45 -17.5q60 0 60 69v471h118v-480q0 -79 -46 -120z" />
    <glyph glyph-name="K" unicode="K" horiz-adv-x="544" 
d="M536 630l-187 -256l193 -374h-133l-137 282l-98 -121v-161h-119v630h119v-322l231 322h131z" />
    <glyph glyph-name="Kcommaaccent" unicode="&#x136;" horiz-adv-x="544" 
d="M536 630l-187 -256l193 -374h-133l-137 282l-98 -121v-161h-119v630h119v-322l231 322h131zM228 -241l32 78h-45v112h114v-103l-42 -87h-59z" />
    <glyph glyph-name="L" unicode="L" horiz-adv-x="461" 
d="M440 110v-110h-385v630h118v-520h267z" />
    <glyph glyph-name="Lacute" unicode="&#x139;" horiz-adv-x="461" 
d="M145 691h-92l79 121h110l1 -3zM440 110v-110h-385v630h118v-520h267z" />
    <glyph glyph-name="Lcaron" unicode="&#x13d;" horiz-adv-x="461" 
d="M440 110v-110h-385v630h118v-520h267zM379 361h-66l50 143h-50v126h127v-114z" />
    <glyph glyph-name="Lcommaaccent" unicode="&#x13b;" horiz-adv-x="461" 
d="M440 110v-110h-385v630h118v-520h267zM245 -241h-59l32 78h-44v112h113v-103z" />
    <glyph glyph-name="Ldot" unicode="&#x13f;" horiz-adv-x="461" 
d="M440 110v-110h-385v630h118v-520h267zM288 376v106h98v-106h-98z" />
    <glyph glyph-name="Lslash" unicode="&#x141;" horiz-adv-x="461" 
d="M280 505v-89l-107 -95v-211h267v-110h-385v218l-55 -48v87l55 48v325h118v-220z" />
    <glyph glyph-name="M" unicode="M" horiz-adv-x="628" 
d="M471 0v401q0 29 1.5 59.5t2.5 42.5h-4q-2 -6 -4 -22l-11 -49l-95 -432h-102l-88 405q-10 36 -23 98h-3q1 -12 2.5 -44t1.5 -58v-401h-100v630h165l78 -347q6 -26 14.5 -76.5t10.5 -66.5h4q2 17 9 68.5t12 74.5l77 347h160v-630h-108z" />
    <glyph glyph-name="N" unicode="N" horiz-adv-x="544" 
d="M385 0l-196 347l-28 60l-4 -3q0 -6 1 -21.5t1 -30.5v-352h-104v630h104l195 -347q6 -10 16 -30.5t13 -27.5l2 2v53v350h104v-630h-104z" />
    <glyph glyph-name="Nacute" unicode="&#x143;" horiz-adv-x="544" 
d="M300 691h-91l79 121h110l1 -3zM385 0l-196 347l-28 60l-4 -3q0 -6 1 -21.5t1 -30.5v-352h-104v630h104l195 -347q6 -10 16 -30.5t13 -27.5l2 2v53v350h104v-630h-104z" />
    <glyph glyph-name="Ncaron" unicode="&#x147;" horiz-adv-x="544" 
d="M228 687l-79 125h82l41 -63l41 63h83l-78 -125h-90zM385 0l-196 347l-28 60l-4 -3q0 -6 1 -21.5t1 -30.5v-352h-104v630h104l195 -347q6 -10 16 -30.5t13 -27.5l2 2v53v350h104v-630h-104z" />
    <glyph glyph-name="Ncommaaccent" unicode="&#x145;" horiz-adv-x="544" 
d="M385 0l-196 347l-28 60l-4 -3q0 -6 1 -21.5t1 -30.5v-352h-104v630h104l195 -347q6 -10 16 -30.5t13 -27.5l2 2v53v350h104v-630h-104zM287 -241h-59l32 78h-45v112h114v-103z" />
    <glyph glyph-name="Eng" unicode="&#x14a;" horiz-adv-x="545" 
d="M463 -130q-26 -37 -87 -37q-20 0 -42 3t-37 8v81h41q44 0 44 45v30l-193 347l-28 60l-4 -3q0 -6 1 -21.5t1 -30.5v-352h-104v630h104l195 -347q6 -10 16 -30.5t13 -27.5l2 2v53v350h104v-667q0 -56 -26 -93z" />
    <glyph glyph-name="Ntilde" unicode="&#xd1;" horiz-adv-x="544" 
d="M403 734q-23 -34 -67 -34q-15 0 -27.5 4t-35.5 13q-19 8 -32 12t-27 4q-16 0 -24.5 -7.5t-11.5 -25.5h-60q0 43 23 77.5t67 34.5q15 0 30 -4.5t34 -13.5q19 -8 32 -12t26 -4q15 0 24 7.5t12 26.5h60q0 -44 -23 -78zM385 0l-196 347l-28 60l-4 -3q0 -6 1 -21.5t1 -30.5
v-352h-104v630h104l195 -347q6 -10 16 -30.5t13 -27.5l2 2v53v350h104v-630h-104z" />
    <glyph glyph-name="O" unicode="O" horiz-adv-x="587" 
d="M486.5 560.5q68.5 -81.5 68.5 -245.5q0 -163 -68.5 -244.5t-193.5 -81.5t-193.5 81.5t-68.5 244.5t68.5 245t193.5 82t193.5 -81.5zM188.5 487.5q-35.5 -53.5 -35.5 -149.5v-46q0 -96 35.5 -149t104.5 -53t105 53t36 149v46q0 96 -36 149.5t-105 53.5t-104.5 -53.5z" />
    <glyph glyph-name="Oacute" unicode="&#xd3;" horiz-adv-x="587" 
d="M321 691h-91l79 121h111l1 -3zM486.5 560.5q68.5 -81.5 68.5 -245.5q0 -163 -68.5 -244.5t-193.5 -81.5t-193.5 81.5t-68.5 244.5t68.5 245t193.5 82t193.5 -81.5zM188.5 487.5q-35.5 -53.5 -35.5 -149.5v-46q0 -96 35.5 -149t104.5 -53t105 53t36 149v46q0 96 -36 149.5
t-105 53.5t-104.5 -53.5z" />
    <glyph glyph-name="Obreve" unicode="&#x14e;" horiz-adv-x="587" 
d="M400.5 765q-15.5 -23 -43.5 -37.5t-64 -14.5t-64 14.5t-43 37.5t-15 47h68q2 -11 17.5 -21t36.5 -10q22 0 37.5 10t17.5 21h68q0 -24 -15.5 -47zM486.5 560.5q68.5 -81.5 68.5 -245.5q0 -163 -68.5 -244.5t-193.5 -81.5t-193.5 81.5t-68.5 244.5t68.5 245t193.5 82
t193.5 -81.5zM188.5 487.5q-35.5 -53.5 -35.5 -149.5v-46q0 -96 35.5 -149t104.5 -53t105 53t36 149v46q0 96 -36 149.5t-105 53.5t-104.5 -53.5z" />
    <glyph glyph-name="Ocircumflex" unicode="&#xd4;" horiz-adv-x="587" 
d="M294 751l-41 -64h-82l79 125h89l78 -125h-82zM486.5 560.5q68.5 -81.5 68.5 -245.5q0 -163 -68.5 -244.5t-193.5 -81.5t-193.5 81.5t-68.5 244.5t68.5 245t193.5 82t193.5 -81.5zM188.5 487.5q-35.5 -53.5 -35.5 -149.5v-46q0 -96 35.5 -149t104.5 -53t105 53t36 149v46
q0 96 -36 149.5t-105 53.5t-104.5 -53.5z" />
    <glyph glyph-name="Odieresis" unicode="&#xd6;" horiz-adv-x="587" 
d="M167 711v101h92v-101h-92zM329 711v101h91v-101h-91zM486.5 560.5q68.5 -81.5 68.5 -245.5q0 -163 -68.5 -244.5t-193.5 -81.5t-193.5 81.5t-68.5 244.5t68.5 245t193.5 82t193.5 -81.5zM188.5 487.5q-35.5 -53.5 -35.5 -149.5v-46q0 -96 35.5 -149t104.5 -53t105 53
t36 149v46q0 96 -36 149.5t-105 53.5t-104.5 -53.5z" />
    <glyph glyph-name="Ograve" unicode="&#xd2;" horiz-adv-x="587" 
d="M265 691l-99 118l1 3h111l79 -121h-92zM486.5 560.5q68.5 -81.5 68.5 -245.5q0 -163 -68.5 -244.5t-193.5 -81.5t-193.5 81.5t-68.5 244.5t68.5 245t193.5 82t193.5 -81.5zM188.5 487.5q-35.5 -53.5 -35.5 -149.5v-46q0 -96 35.5 -149t104.5 -53t105 53t36 149v46
q0 96 -36 149.5t-105 53.5t-104.5 -53.5z" />
    <glyph glyph-name="Ohungarumlaut" unicode="&#x150;" horiz-adv-x="587" 
d="M263 691h-73l58 121h91l1 -3zM392 691h-73l57 121h92l1 -3zM486.5 560.5q68.5 -81.5 68.5 -245.5q0 -163 -68.5 -244.5t-193.5 -81.5t-193.5 81.5t-68.5 244.5t68.5 245t193.5 82t193.5 -81.5zM188.5 487.5q-35.5 -53.5 -35.5 -149.5v-46q0 -96 35.5 -149t104.5 -53
t105 53t36 149v46q0 96 -36 149.5t-105 53.5t-104.5 -53.5z" />
    <glyph glyph-name="Omacron" unicode="&#x14c;" horiz-adv-x="587" 
d="M177 778h234v-80h-234v80zM486.5 560.5q68.5 -81.5 68.5 -245.5q0 -163 -68.5 -244.5t-193.5 -81.5t-193.5 81.5t-68.5 244.5t68.5 245t193.5 82t193.5 -81.5zM188.5 487.5q-35.5 -53.5 -35.5 -149.5v-46q0 -96 35.5 -149t104.5 -53t105 53t36 149v46q0 96 -36 149.5
t-105 53.5t-104.5 -53.5z" />
    <glyph glyph-name="Oslash" unicode="&#xd8;" horiz-adv-x="587" 
d="M555 315q0 -163 -68.5 -244.5t-193.5 -81.5q-83 0 -142 36l-37 -59h-78l65 103q-70 84 -70 246q0 163 68.5 245t193.5 82q84 0 143 -37l37 60h78l-65 -104q69 -83 69 -246zM188.5 487.5q-35.5 -53.5 -35.5 -149.5v-46q0 -69 17 -114l206 334q-32 29 -83 29
q-69 0 -104.5 -53.5zM293 90q69 0 105 53t36 149v46q0 67 -18 112l-206 -331q32 -29 83 -29z" />
    <glyph glyph-name="Oslashacute" unicode="&#x1fe;" horiz-adv-x="587" 
d="M321 691h-91l79 121h111l1 -3zM555 315q0 -163 -68.5 -244.5t-193.5 -81.5q-83 0 -142 36l-37 -59h-78l65 103q-70 84 -70 246q0 163 68.5 245t193.5 82q84 0 143 -37l37 60h78l-65 -104q69 -83 69 -246zM188.5 487.5q-35.5 -53.5 -35.5 -149.5v-46q0 -69 17 -114
l206 334q-32 29 -83 29q-69 0 -104.5 -53.5zM293 90q69 0 105 53t36 149v46q0 67 -18 112l-206 -331q32 -29 83 -29z" />
    <glyph glyph-name="Otilde" unicode="&#xd5;" horiz-adv-x="587" 
d="M425 734q-23 -34 -67 -34q-15 0 -27.5 4t-35.5 13q-19 8 -32 12t-27 4q-16 0 -24.5 -7.5t-10.5 -25.5h-63q0 43 23.5 77.5t68.5 34.5q15 0 27.5 -4t35.5 -13q36 -17 60 -17q30 0 34 34h61q0 -44 -23 -78zM486.5 560.5q68.5 -81.5 68.5 -245.5q0 -163 -68.5 -244.5
t-193.5 -81.5t-193.5 81.5t-68.5 244.5t68.5 245t193.5 82t193.5 -81.5zM188.5 487.5q-35.5 -53.5 -35.5 -149.5v-46q0 -96 35.5 -149t104.5 -53t105 53t36 149v46q0 96 -36 149.5t-105 53.5t-104.5 -53.5z" />
    <glyph glyph-name="OE" unicode="&#x152;" horiz-adv-x="754" 
d="M375 574v56h347v-104h-229v-151h189v-105h-189v-165h235v-105h-353v56q-51 -67 -138 -67q-100 0 -154.5 81.5t-54.5 244.5q0 164 54.5 245.5t154.5 81.5q86 0 138 -68zM176.5 493q-27.5 -48 -27.5 -155v-46q0 -106 27.5 -154t84.5 -48q58 0 85.5 48t27.5 154v46
q0 107 -27.5 155t-85.5 48q-57 0 -84.5 -48z" />
    <glyph glyph-name="P" unicode="P" horiz-adv-x="503" 
d="M55 0v630h226q95 0 146 -52t51 -137q0 -89 -54 -143t-143 -54h-108v-244h-118zM268 348q43 0 66 25t23 68q0 39 -23.5 62t-65.5 23h-95v-178h95z" />
    <glyph glyph-name="Thorn" unicode="&#xde;" horiz-adv-x="503" 
d="M281 519q95 0 146 -52.5t51 -137.5q0 -89 -54 -143t-143 -54h-108v-132h-118v630h118v-111h108zM173 236h95q43 0 66 24.5t23 68.5q0 39 -23.5 62t-65.5 23h-95v-178z" />
    <glyph glyph-name="Q" unicode="Q" horiz-adv-x="587" 
d="M99.5 560q68.5 82 193.5 82t193.5 -81.5t68.5 -245.5q0 -116 -35.5 -191t-101.5 -108l122 -130h-145l-90 103h-12q-125 0 -193.5 81.5t-68.5 244.5t68.5 245zM188.5 143q35.5 -53 104.5 -53t105 53t36 149v46q0 96 -36 149.5t-105 53.5t-104.5 -53.5t-35.5 -149.5v-46
q0 -96 35.5 -149z" />
    <glyph glyph-name="R" unicode="R" horiz-adv-x="544" 
d="M462 580.5q50 -49.5 50 -130.5q0 -56 -28 -98.5t-77 -62.5l120 -289h-127l-105 263h-122v-263h-118v630h264q93 0 143 -49.5zM173 367h130q82 0 82 83q0 36 -19.5 56t-58.5 20h-134v-159z" />
    <glyph glyph-name="Racute" unicode="&#x154;" horiz-adv-x="544" 
d="M300 691h-91l79 121h110l1 -3zM462 580.5q50 -49.5 50 -130.5q0 -56 -28 -98.5t-77 -62.5l120 -289h-127l-105 263h-122v-263h-118v630h264q93 0 143 -49.5zM173 367h130q82 0 82 83q0 36 -19.5 56t-58.5 20h-134v-159z" />
    <glyph glyph-name="Rcaron" unicode="&#x158;" horiz-adv-x="544" 
d="M228 687l-79 125h82l41 -63l41 63h83l-78 -125h-90zM462 580.5q50 -49.5 50 -130.5q0 -56 -28 -98.5t-77 -62.5l120 -289h-127l-105 263h-122v-263h-118v630h264q93 0 143 -49.5zM173 367h130q82 0 82 83q0 36 -19.5 56t-58.5 20h-134v-159z" />
    <glyph glyph-name="Rcommaaccent" unicode="&#x156;" horiz-adv-x="544" 
d="M462 580.5q50 -49.5 50 -130.5q0 -56 -28 -98.5t-77 -62.5l120 -289h-127l-105 263h-122v-263h-118v630h264q93 0 143 -49.5zM173 367h130q82 0 82 83q0 36 -19.5 56t-58.5 20h-134v-159zM287 -241h-59l32 78h-45v112h114v-103z" />
    <glyph glyph-name="S" unicode="S" horiz-adv-x="503" 
d="M398.5 595.5q57.5 -46.5 57.5 -139.5v-11h-120v8q0 40 -23 64t-63 24q-42 0 -65 -19t-23 -49q0 -26 15.5 -42.5t38.5 -26.5t65 -23q59 -18 96.5 -36.5t64 -56t26.5 -99.5q0 -103 -59.5 -151.5t-163.5 -48.5q-59 0 -108.5 22.5t-79 66.5t-29.5 107v20h123l-1 -15
q0 -45 26.5 -72.5t74.5 -27.5q49 0 72 21.5t23 52.5t-16.5 51t-41.5 31.5t-68 25.5q-57 19 -92.5 37.5t-61 56t-25.5 99.5q0 57 28.5 97t76 60t105.5 20q90 0 147.5 -46.5z" />
    <glyph glyph-name="Sacute" unicode="&#x15a;" horiz-adv-x="503" 
d="M280 691h-92l79 121h111l1 -3zM398.5 595.5q57.5 -46.5 57.5 -139.5v-11h-120v8q0 40 -23 64t-63 24q-42 0 -65 -19t-23 -49q0 -26 15.5 -42.5t38.5 -26.5t65 -23q59 -18 96.5 -36.5t64 -56t26.5 -99.5q0 -103 -59.5 -151.5t-163.5 -48.5q-59 0 -108.5 22.5t-79 66.5
t-29.5 107v20h123l-1 -15q0 -45 26.5 -72.5t74.5 -27.5q49 0 72 21.5t23 52.5t-16.5 51t-41.5 31.5t-68 25.5q-57 19 -92.5 37.5t-61 56t-25.5 99.5q0 57 28.5 97t76 60t105.5 20q90 0 147.5 -46.5z" />
    <glyph glyph-name="Scaron" unicode="&#x160;" horiz-adv-x="503" 
d="M128 812h82l42 -63l40 63h83l-78 -125h-90zM398.5 595.5q57.5 -46.5 57.5 -139.5v-11h-120v8q0 40 -23 64t-63 24q-42 0 -65 -19t-23 -49q0 -26 15.5 -42.5t38.5 -26.5t65 -23q59 -18 96.5 -36.5t64 -56t26.5 -99.5q0 -103 -59.5 -151.5t-163.5 -48.5q-59 0 -108.5 22.5
t-79 66.5t-29.5 107v20h123l-1 -15q0 -45 26.5 -72.5t74.5 -27.5q49 0 72 21.5t23 52.5t-16.5 51t-41.5 31.5t-68 25.5q-57 19 -92.5 37.5t-61 56t-25.5 99.5q0 57 28.5 97t76 60t105.5 20q90 0 147.5 -46.5z" />
    <glyph glyph-name="Scedilla" unicode="&#x15e;" horiz-adv-x="503" 
d="M398.5 595.5q57.5 -46.5 57.5 -139.5v-11h-120v8q0 40 -23 64t-63 24q-42 0 -65 -19t-23 -49q0 -26 15.5 -42.5t38.5 -26.5t65 -23q59 -18 96.5 -36.5t64 -56t26.5 -99.5q0 -97 -53 -145t-146 -54l-2 -20q33 -2 53 -17.5t20 -45.5q0 -41 -30.5 -57.5t-69.5 -16.5
q-38 0 -78 7v45h66q17 0 25 5t8 17t-7 17t-24 5h-30l7 63q-79 9 -129 59.5t-50 133.5v20h123l-1 -15q0 -45 26.5 -72.5t74.5 -27.5q49 0 72 21.5t23 52.5t-16.5 51t-41.5 31.5t-68 25.5q-57 19 -92.5 37.5t-61 56t-25.5 99.5q0 57 28.5 97t76 60t105.5 20q90 0 147.5 -46.5z
" />
    <glyph glyph-name="Scircumflex" unicode="&#x15c;" horiz-adv-x="503" 
d="M252 751l-42 -64h-82l79 125h90l78 -125h-83zM398.5 595.5q57.5 -46.5 57.5 -139.5v-11h-120v8q0 40 -23 64t-63 24q-42 0 -65 -19t-23 -49q0 -26 15.5 -42.5t38.5 -26.5t65 -23q59 -18 96.5 -36.5t64 -56t26.5 -99.5q0 -103 -59.5 -151.5t-163.5 -48.5
q-59 0 -108.5 22.5t-79 66.5t-29.5 107v20h123l-1 -15q0 -45 26.5 -72.5t74.5 -27.5q49 0 72 21.5t23 52.5t-16.5 51t-41.5 31.5t-68 25.5q-57 19 -92.5 37.5t-61 56t-25.5 99.5q0 57 28.5 97t76 60t105.5 20q90 0 147.5 -46.5z" />
    <glyph glyph-name="Scommaaccent" unicode="&#x218;" horiz-adv-x="503" 
d="M28 0zM398.5 595.5q57.5 -46.5 57.5 -139.5v-11h-120v8q0 40 -23 64t-63 24q-42 0 -65 -19t-23 -49q0 -26 15.5 -42.5t38.5 -26.5t65 -23q59 -18 96.5 -36.5t64 -56t26.5 -99.5q0 -103 -59.5 -151.5t-163.5 -48.5q-59 0 -108.5 22.5t-79 66.5t-29.5 107v20h123l-1 -15
q0 -45 26.5 -72.5t74.5 -27.5q49 0 72 21.5t23 52.5t-16.5 51t-41.5 31.5t-68 25.5q-57 19 -92.5 37.5t-61 56t-25.5 99.5q0 57 28.5 97t76 60t105.5 20q90 0 147.5 -46.5zM207 -241l34 78h-46v112h114v-103l-42 -87h-60z" />
    <glyph glyph-name="T" unicode="T" horiz-adv-x="461" 
d="M289 526v-526h-117v526h-156v104h430v-104h-157z" />
    <glyph glyph-name="Tbar" unicode="&#x166;" horiz-adv-x="461" 
d="M289 526v-165h103v-79h-103v-282h-117v282h-104v79h104v165h-156v104h430v-104h-157z" />
    <glyph glyph-name="Tcaron" unicode="&#x164;" horiz-adv-x="461" 
d="M186 687l-79 125h82l42 -63l40 63h83l-78 -125h-90zM289 526v-526h-117v526h-156v104h430v-104h-157z" />
    <glyph glyph-name="uni0162" unicode="&#x162;" horiz-adv-x="461" 
d="M249 0l-3 -30q32 -2 52 -17.5t20 -45.5q0 -41 -30.5 -57.5t-69.5 -16.5t-77 7v45h66q16 0 24 5t8 17t-7 17t-24 5h-30l9 71h-15v526h-156v104h430v-104h-157v-526h-40z" />
    <glyph glyph-name="uni021A" unicode="&#x21a;" horiz-adv-x="461" 
d="M289 526v-526h-117v526h-156v104h430v-104h-157zM245 -241h-59l32 78h-44v112h113v-103z" />
    <glyph glyph-name="U" unicode="U" horiz-adv-x="544" 
d="M432 42.5q-57 -53.5 -160 -53.5t-159.5 53.5t-56.5 155.5v432h118v-428q0 -54 25.5 -83t72.5 -29q48 0 73.5 29t25.5 83v428h118v-432q0 -102 -57 -155.5z" />
    <glyph glyph-name="Uacute" unicode="&#xda;" horiz-adv-x="544" 
d="M300 691h-91l79 121h110l1 -3zM432 42.5q-57 -53.5 -160 -53.5t-159.5 53.5t-56.5 155.5v432h118v-428q0 -54 25.5 -83t72.5 -29q48 0 73.5 29t25.5 83v428h118v-432q0 -102 -57 -155.5z" />
    <glyph glyph-name="Ubreve" unicode="&#x16c;" horiz-adv-x="544" 
d="M379.5 765q-15.5 -23 -44 -37.5t-64.5 -14.5t-63.5 14.5t-42.5 37.5t-15 47h68q2 -11 17 -21t36 -10q23 0 39 10t17 21h68q0 -24 -15.5 -47zM432 42.5q-57 -53.5 -160 -53.5t-159.5 53.5t-56.5 155.5v432h118v-428q0 -54 25.5 -83t72.5 -29q48 0 73.5 29t25.5 83v428h118
v-432q0 -102 -57 -155.5z" />
    <glyph glyph-name="Ucircumflex" unicode="&#xdb;" horiz-adv-x="544" 
d="M313 687l-41 64l-41 -64h-82l79 125h90l78 -125h-83zM432 42.5q-57 -53.5 -160 -53.5t-159.5 53.5t-56.5 155.5v432h118v-428q0 -54 25.5 -83t72.5 -29q48 0 73.5 29t25.5 83v428h118v-432q0 -102 -57 -155.5z" />
    <glyph glyph-name="Udieresis" unicode="&#xdc;" horiz-adv-x="544" 
d="M147 711v101h91v-101h-91zM306 711v101h93v-101h-93zM432 42.5q-57 -53.5 -160 -53.5t-159.5 53.5t-56.5 155.5v432h118v-428q0 -54 25.5 -83t72.5 -29q48 0 73.5 29t25.5 83v428h118v-432q0 -102 -57 -155.5z" />
    <glyph glyph-name="Ugrave" unicode="&#xd9;" horiz-adv-x="544" 
d="M244 691l-98 118l1 3h110l79 -121h-92zM432 42.5q-57 -53.5 -160 -53.5t-159.5 53.5t-56.5 155.5v432h118v-428q0 -54 25.5 -83t72.5 -29q48 0 73.5 29t25.5 83v428h118v-432q0 -102 -57 -155.5z" />
    <glyph glyph-name="Uhungarumlaut" unicode="&#x170;" horiz-adv-x="544" 
d="M241 691h-73l58 121h91l1 -3zM369 691h-72l57 121h92l1 -3zM432 42.5q-57 -53.5 -160 -53.5t-159.5 53.5t-56.5 155.5v432h118v-428q0 -54 25.5 -83t72.5 -29q48 0 73.5 29t25.5 83v428h118v-432q0 -102 -57 -155.5z" />
    <glyph glyph-name="Umacron" unicode="&#x16a;" horiz-adv-x="544" 
d="M155 698v80h235v-80h-235zM432 42.5q-57 -53.5 -160 -53.5t-159.5 53.5t-56.5 155.5v432h118v-428q0 -54 25.5 -83t72.5 -29q48 0 73.5 29t25.5 83v428h118v-432q0 -102 -57 -155.5z" />
    <glyph glyph-name="Uogonek" unicode="&#x172;" horiz-adv-x="544" 
d="M489 630v-425q0 -77 -30 -128t-87 -73q-10 -11 -19 -28.5t-9 -34.5q0 -20 10.5 -34t31.5 -14h21v-50q-38 -14 -62 -14q-36 0 -63 20t-27 64t27 76h-10q-103 0 -159.5 55.5t-56.5 160.5v425h118v-421q0 -58 25.5 -88.5t72.5 -30.5q48 0 73.5 30.5t25.5 88.5v421h118z" />
    <glyph glyph-name="Uring" unicode="&#x16e;" horiz-adv-x="544" 
d="M335 813q26 -26 26 -62q0 -37 -26 -63t-63 -26q-36 0 -62 26t-26 63t26 62.5t62 25.5q37 0 63 -26zM242.5 781.5q-12.5 -12.5 -12.5 -30.5t12.5 -30t29.5 -12t29.5 12t12.5 30t-12.5 30.5t-29.5 12.5t-29.5 -12.5zM432 42.5q-57 -53.5 -160 -53.5t-159.5 53.5
t-56.5 155.5v432h118v-428q0 -54 25.5 -83t72.5 -29q48 0 73.5 29t25.5 83v428h118v-432q0 -102 -57 -155.5z" />
    <glyph glyph-name="Utilde" unicode="&#x168;" horiz-adv-x="544" 
d="M403 734q-23 -34 -67 -34q-15 0 -27.5 4t-35.5 13q-19 8 -32 12t-27 4q-16 0 -24.5 -7.5t-11.5 -25.5h-60q0 43 23 77.5t67 34.5q15 0 30 -4.5t34 -13.5q19 -8 32 -12t26 -4q15 0 24 7.5t12 26.5h60q0 -44 -23 -78zM432 42.5q-57 -53.5 -160 -53.5t-159.5 53.5
t-56.5 155.5v432h118v-428q0 -54 25.5 -83t72.5 -29q48 0 73.5 29t25.5 83v428h118v-432q0 -102 -57 -155.5z" />
    <glyph glyph-name="V" unicode="V" horiz-adv-x="503" 
d="M0 630h122l132 -451h4l130 451h115l-192 -630h-119z" />
    <glyph glyph-name="W" unicode="W" horiz-adv-x="711" 
d="M369 401q-4 21 -7.5 51t-4.5 39h-4q-1 -10 -5 -37.5t-8 -52.5l-84 -401h-119l-137 630h116l76 -388q4 -17 7.5 -47t4.5 -40h4q1 10 4.5 40.5t6.5 46.5l77 388h134l74 -388q4 -15 8 -46t5 -41h3q1 9 4.5 38.5t7.5 48.5l77 388h101l-136 -630h-118z" />
    <glyph glyph-name="Wacute" unicode="&#x1e82;" horiz-adv-x="711" 
d="M384 691h-92l79 121h111l1 -3zM456 0l-87 401q-4 21 -7.5 51t-4.5 39h-4q-1 -10 -5 -37.5t-8 -52.5l-84 -401h-119l-137 630h116l76 -388q4 -17 7.5 -47t4.5 -40h4q1 10 4.5 40.5t6.5 46.5l77 388h134l74 -388q4 -15 8 -46t5 -41h3q1 9 4.5 38.5t7.5 48.5l77 388h101
l-136 -630h-118z" />
    <glyph glyph-name="Wcircumflex" unicode="&#x174;" horiz-adv-x="711" 
d="M357 751l-42 -64h-82l79 125h89l78 -125h-82zM369 401q-4 21 -7.5 51t-4.5 39h-4q-1 -10 -5 -37.5t-8 -52.5l-84 -401h-119l-137 630h116l76 -388q4 -17 7.5 -47t4.5 -40h4q1 10 4.5 40.5t6.5 46.5l77 388h134l74 -388q4 -15 8 -46t5 -41h3q1 9 4.5 38.5t7.5 48.5l77 388
h101l-136 -630h-118z" />
    <glyph glyph-name="Wdieresis" unicode="&#x1e84;" horiz-adv-x="711" 
d="M230 711v101h91v-101h-91zM391 711v101h92v-101h-92zM456 0l-87 401q-4 21 -7.5 51t-4.5 39h-4q-1 -10 -5 -37.5t-8 -52.5l-84 -401h-119l-137 630h116l76 -388q4 -17 7.5 -47t4.5 -40h4q1 10 4.5 40.5t6.5 46.5l77 388h134l74 -388q4 -15 8 -46t5 -41h3q1 9 4.5 38.5
t7.5 48.5l77 388h101l-136 -630h-118z" />
    <glyph glyph-name="Wgrave" unicode="&#x1e80;" horiz-adv-x="711" 
d="M329 691l-100 118l1 3h110l79 -121h-90zM456 0l-87 401q-4 21 -7.5 51t-4.5 39h-4q-1 -10 -5 -37.5t-8 -52.5l-84 -401h-119l-137 630h116l76 -388q4 -17 7.5 -47t4.5 -40h4q1 10 4.5 40.5t6.5 46.5l77 388h134l74 -388q4 -15 8 -46t5 -41h3q1 9 4.5 38.5t7.5 48.5
l77 388h101l-136 -630h-118z" />
    <glyph glyph-name="X" unicode="X" horiz-adv-x="503" 
d="M502 0h-131l-122 238h-5l-121 -238h-123l178 331l-161 299h131l106 -206h4l105 206h123l-164 -297z" />
    <glyph glyph-name="Y" unicode="Y" horiz-adv-x="503" 
d="M193 0v238l-193 392h124l129 -276h4l128 276h118l-192 -392v-238h-118z" />
    <glyph glyph-name="Yacute" unicode="&#xdd;" horiz-adv-x="503" 
d="M280 691h-92l79 121h111l1 -3zM311 0h-118v238l-193 392h124l129 -276h4l128 276h118l-192 -392v-238z" />
    <glyph glyph-name="Ycircumflex" unicode="&#x176;" horiz-adv-x="503" 
d="M252 751l-42 -64h-82l79 125h90l78 -125h-83zM193 0v238l-193 392h124l129 -276h4l128 276h118l-192 -392v-238h-118z" />
    <glyph glyph-name="Ydieresis" unicode="&#x178;" horiz-adv-x="503" 
d="M125 711v101h92v-101h-92zM286 711v101h92v-101h-92zM311 0h-118v238l-193 392h124l129 -276h4l128 276h118l-192 -392v-238z" />
    <glyph glyph-name="Ygrave" unicode="&#x1ef2;" horiz-adv-x="503" 
d="M224 691l-100 118l1 3h110l79 -121h-90zM311 0h-118v238l-193 392h124l129 -276h4l128 276h118l-192 -392v-238z" />
    <glyph glyph-name="Z" unicode="Z" horiz-adv-x="461" 
d="M176 105h265v-105h-426v45l259 481h-240v104h401v-46z" />
    <glyph glyph-name="Zacute" unicode="&#x179;" horiz-adv-x="461" 
d="M258 691h-91l79 121h111l1 -3zM176 105h265v-105h-426v45l259 481h-240v104h401v-46z" />
    <glyph glyph-name="Zcaron" unicode="&#x17d;" horiz-adv-x="461" 
d="M186 687l-79 125h82l42 -63l40 63h83l-78 -125h-90zM176 105h265v-105h-426v45l259 481h-240v104h401v-46z" />
    <glyph glyph-name="Zdotaccent" unicode="&#x17b;" horiz-adv-x="461" 
d="M181 706v106h99v-106h-99zM176 105h265v-105h-426v45l259 481h-240v104h401v-46z" />
    <glyph glyph-name="a" unicode="a" horiz-adv-x="419" 
d="M323 458q41 -37 41 -105v-239q0 -16 7.5 -24t18.5 -8h22v-78q-26 -15 -66 -15q-32 0 -54.5 17.5t-30.5 45.5h-4q-23 -32 -50.5 -47.5t-72.5 -15.5q-46 0 -84 30.5t-38 105.5q0 93 63 131t178 38v50q0 29 -11 45t-40 16q-30 0 -43.5 -15.5t-13.5 -35.5v-14h-109
q-1 5 -1 21q0 60 45 97t120 37q82 0 123 -37zM126 135q0 -54 54 -54q37 0 55 29.5t18 75.5v28q-127 0 -127 -79z" />
    <glyph glyph-name="aacute" unicode="&#xe1;" horiz-adv-x="419" 
d="M227 543h-91l79 122h111l1 -4zM323 458q41 -37 41 -105v-239q0 -16 7.5 -24t18.5 -8h22v-78q-26 -15 -66 -15q-32 0 -54.5 17.5t-30.5 45.5h-4q-23 -32 -50.5 -47.5t-72.5 -15.5q-46 0 -84 30.5t-38 105.5q0 93 63 131t178 38v50q0 29 -11 45t-40 16q-30 0 -43.5 -15.5
t-13.5 -35.5v-14h-109q-1 5 -1 21q0 60 45 97t120 37q82 0 123 -37zM126 135q0 -54 54 -54q37 0 55 29.5t18 75.5v28q-127 0 -127 -79z" />
    <glyph glyph-name="abreve" unicode="&#x103;" horiz-adv-x="419" 
d="M306.5 618.5q-15.5 -22.5 -43.5 -37t-64 -14.5t-64 14.5t-43.5 37t-15.5 46.5h70q2 -11 17.5 -21t35.5 -10q22 0 37.5 10t17.5 21h68q0 -24 -15.5 -46.5zM323 458q41 -37 41 -105v-239q0 -16 7.5 -24t18.5 -8h22v-78q-26 -15 -66 -15q-32 0 -54.5 17.5t-30.5 45.5h-4
q-23 -32 -50.5 -47.5t-72.5 -15.5q-46 0 -84 30.5t-38 105.5q0 93 63 131t178 38v50q0 29 -11 45t-40 16q-30 0 -43.5 -15.5t-13.5 -35.5v-14h-109q-1 5 -1 21q0 60 45 97t120 37q82 0 123 -37zM126 135q0 -54 54 -54q37 0 55 29.5t18 75.5v28q-127 0 -127 -79z" />
    <glyph glyph-name="acircumflex" unicode="&#xe2;" horiz-adv-x="419" 
d="M200 604l-42 -63h-82l79 124h90l78 -124h-82zM323 458q41 -37 41 -105v-239q0 -16 7.5 -24t18.5 -8h22v-78q-26 -15 -66 -15q-32 0 -54.5 17.5t-30.5 45.5h-4q-23 -32 -50.5 -47.5t-72.5 -15.5q-46 0 -84 30.5t-38 105.5q0 93 63 131t178 38v50q0 29 -11 45t-40 16
q-30 0 -43.5 -15.5t-13.5 -35.5v-14h-109q-1 5 -1 21q0 60 45 97t120 37q82 0 123 -37zM126 135q0 -54 54 -54q37 0 55 29.5t18 75.5v28q-127 0 -127 -79z" />
    <glyph glyph-name="adieresis" unicode="&#xe4;" horiz-adv-x="419" 
d="M74 565v100h91v-100h-91zM234 565v100h92v-100h-92zM323 458q41 -37 41 -105v-239q0 -16 7.5 -24t18.5 -8h22v-78q-26 -15 -66 -15q-32 0 -54.5 17.5t-30.5 45.5h-4q-23 -32 -50.5 -47.5t-72.5 -15.5q-46 0 -84 30.5t-38 105.5q0 93 63 131t178 38v50q0 29 -11 45t-40 16
q-30 0 -43.5 -15.5t-13.5 -35.5v-14h-109q-1 5 -1 21q0 60 45 97t120 37q82 0 123 -37zM126 135q0 -54 54 -54q37 0 55 29.5t18 75.5v28q-127 0 -127 -79z" />
    <glyph glyph-name="agrave" unicode="&#xe0;" horiz-adv-x="419" 
d="M172 543l-99 118l1 4h110l79 -122h-91zM323 458q41 -37 41 -105v-239q0 -16 7.5 -24t18.5 -8h22v-78q-26 -15 -66 -15q-32 0 -54.5 17.5t-30.5 45.5h-4q-23 -32 -50.5 -47.5t-72.5 -15.5q-46 0 -84 30.5t-38 105.5q0 93 63 131t178 38v50q0 29 -11 45t-40 16
q-30 0 -43.5 -15.5t-13.5 -35.5v-14h-109q-1 5 -1 21q0 60 45 97t120 37q82 0 123 -37zM126 135q0 -54 54 -54q37 0 55 29.5t18 75.5v28q-127 0 -127 -79z" />
    <glyph glyph-name="amacron" unicode="&#x101;" horiz-adv-x="419" 
d="M82 630h235v-79h-235v79zM323 458q41 -37 41 -105v-239q0 -16 7.5 -24t18.5 -8h22v-78q-26 -15 -66 -15q-32 0 -54.5 17.5t-30.5 45.5h-4q-23 -32 -50.5 -47.5t-72.5 -15.5q-46 0 -84 30.5t-38 105.5q0 93 63 131t178 38v50q0 29 -11 45t-40 16q-30 0 -43.5 -15.5
t-13.5 -35.5v-14h-109q-1 5 -1 21q0 60 45 97t120 37q82 0 123 -37zM126 135q0 -54 54 -54q37 0 55 29.5t18 75.5v28q-127 0 -127 -79z" />
    <glyph glyph-name="aogonek" unicode="&#x105;" horiz-adv-x="419" 
d="M385 -171q-37 0 -64 19.5t-27 63.5q0 45 28 80q-23 5 -38.5 21t-22.5 39h-4q-23 -32 -50.5 -47.5t-72.5 -15.5q-46 0 -84 30.5t-38 105.5q0 93 63 131t178 38v50q0 29 -11 45t-40 16q-30 0 -43.5 -15.5t-13.5 -35.5v-14h-109q-1 5 -1 21q0 60 45 97t120 37q82 0 123 -37
t41 -105v-239q0 -16 7.5 -24t18.5 -8h22v-78q-10 -12 -18.5 -29.5t-8.5 -34.5q0 -20 9.5 -33.5t30.5 -13.5h21v-51q-36 -13 -61 -13zM126 135q0 -54 54 -54q37 0 55 29.5t18 75.5v28q-127 0 -127 -79z" />
    <glyph glyph-name="aring" unicode="&#xe5;" horiz-adv-x="419" 
d="M262.5 666.5q25.5 -26.5 25.5 -62.5q0 -37 -25.5 -62.5t-62.5 -25.5q-36 0 -62.5 25.5t-26.5 62.5t26 63t63 26t62.5 -26.5zM169.5 634q-12.5 -12 -12.5 -30t12.5 -30t30.5 -12q17 0 29 12t12 30t-12 30t-29 12q-18 0 -30.5 -12zM323 458q41 -37 41 -105v-239
q0 -16 7.5 -24t18.5 -8h22v-78q-26 -15 -66 -15q-32 0 -54.5 17.5t-30.5 45.5h-4q-23 -32 -50.5 -47.5t-72.5 -15.5q-46 0 -84 30.5t-38 105.5q0 93 63 131t178 38v50q0 29 -11 45t-40 16q-30 0 -43.5 -15.5t-13.5 -35.5v-14h-109q-1 5 -1 21q0 60 45 97t120 37
q82 0 123 -37zM126 135q0 -54 54 -54q37 0 55 29.5t18 75.5v28q-127 0 -127 -79z" />
    <glyph glyph-name="aringacute" unicode="&#x1fb;" horiz-adv-x="460" 
d="M251 706h-91l69 106h110l1 -3zM262.5 661q25.5 -25 25.5 -60t-25.5 -60t-62.5 -25q-36 0 -62.5 24.5t-26.5 60.5q0 35 26 60t63 25t62.5 -25zM169.5 630q-12.5 -12 -12.5 -29q0 -18 12.5 -29.5t30.5 -11.5q17 0 29 11.5t12 29.5q0 17 -12 29t-29 12q-18 0 -30.5 -12z
M323 458q41 -37 41 -105v-239q0 -16 7.5 -24t18.5 -8h22v-78q-26 -15 -66 -15q-32 0 -54.5 17.5t-30.5 45.5h-4q-23 -32 -50.5 -47.5t-72.5 -15.5q-46 0 -84 30.5t-38 105.5q0 93 63 131t178 38v50q0 29 -11 45t-40 16q-30 0 -43.5 -15.5t-13.5 -35.5v-14h-109q-1 5 -1 21
q0 60 45 97t120 37q82 0 123 -37zM126 135q0 -54 54 -54q37 0 55 29.5t18 75.5v28q-127 0 -127 -79z" />
    <glyph glyph-name="atilde" unicode="&#xe3;" horiz-adv-x="419" 
d="M331 586.5q-23 -34.5 -68 -34.5q-15 0 -29 4.5t-34 13.5q-36 17 -59 17q-31 0 -35 -35h-61q0 44 23 78.5t67 34.5q15 0 28.5 -4.5t35.5 -13.5q36 -17 59 -17q15 0 23.5 8t11.5 27h61q0 -44 -23 -78.5zM323 458q41 -37 41 -105v-239q0 -16 7.5 -24t18.5 -8h22v-78
q-26 -15 -66 -15q-32 0 -54.5 17.5t-30.5 45.5h-4q-23 -32 -50.5 -47.5t-72.5 -15.5q-46 0 -84 30.5t-38 105.5q0 93 63 131t178 38v50q0 29 -11 45t-40 16q-30 0 -43.5 -15.5t-13.5 -35.5v-14h-109q-1 5 -1 21q0 60 45 97t120 37q82 0 123 -37zM126 135q0 -54 54 -54
q37 0 55 29.5t18 75.5v28q-127 0 -127 -79z" />
    <glyph glyph-name="ae" unicode="&#xe6;" horiz-adv-x="670" 
d="M591 433q43 -62 43 -192v-27h-245q1 -68 18 -101.5t57 -33.5q28 0 44.5 24.5t16.5 67.5h109q0 -90 -46.5 -136t-123.5 -46q-99 0 -145 65q-29 -31 -63.5 -48t-81.5 -17q-53 0 -96.5 30.5t-43.5 105.5q0 93 62.5 131t177.5 38v50q0 29 -11 45t-39 16q-31 0 -45 -15.5
t-14 -35.5v-14h-107q-1 5 -1 21q0 60 45 97t118 37q82 0 124 -47q45 47 116 47q88 0 131 -62zM409 376.5q-17 -28.5 -19 -82.5h129q0 53 -15 82t-44 29q-34 0 -51 -28.5zM182.5 196q-35.5 -18 -35.5 -61q0 -54 55 -54q37 0 54.5 29.5t17.5 75.5v28q-56 0 -91.5 -18z" />
    <glyph glyph-name="aeacute" unicode="&#x1fd;" horiz-adv-x="670" 
d="M363 543h-91l80 122h110l1 -4zM591 433q43 -62 43 -192v-27h-245q1 -68 18 -101.5t57 -33.5q28 0 44.5 24.5t16.5 67.5h109q0 -90 -46.5 -136t-123.5 -46q-99 0 -145 65q-29 -31 -63.5 -48t-81.5 -17q-53 0 -96.5 30.5t-43.5 105.5q0 93 62.5 131t177.5 38v50
q0 29 -11 45t-39 16q-31 0 -45 -15.5t-14 -35.5v-14h-107q-1 5 -1 21q0 60 45 97t118 37q82 0 124 -47q45 47 116 47q88 0 131 -62zM409 376.5q-17 -28.5 -19 -82.5h129q0 53 -15 82t-44 29q-34 0 -51 -28.5zM182.5 196q-35.5 -18 -35.5 -61q0 -54 55 -54q37 0 54.5 29.5
t17.5 75.5v28q-56 0 -91.5 -18z" />
    <glyph glyph-name="b" unicode="b" horiz-adv-x="461" 
d="M165 434q13 28 42.5 44.5t66.5 16.5q67 0 108 -63.5t41 -189.5q0 -127 -41 -190t-115 -63q-35 0 -63 17.5t-46 52.5h-4l-12 -59h-91v665h110v-231h4zM178.5 359.5q-17.5 -34.5 -17.5 -101.5v-33q0 -68 17 -102t56 -34t56.5 34t17.5 102v34q0 68 -17.5 101.5t-56.5 33.5
q-38 0 -55.5 -34.5z" />
    <glyph glyph-name="c" unicode="c" horiz-adv-x="419" 
d="M341.5 447.5q44.5 -47.5 44.5 -145.5h-112q0 99 -57 99q-34 0 -49 -35t-15 -107v-34q0 -73 15.5 -108t51.5 -35q30 0 43.5 24.5t13.5 75.5h109q0 -98 -43.5 -145.5t-122.5 -47.5q-94 0 -138.5 61t-44.5 191t45 192t135 62q80 0 124.5 -47.5z" />
    <glyph glyph-name="cacute" unicode="&#x107;" horiz-adv-x="419" 
d="M246 543h-91l79 122h110v-4zM341.5 447.5q44.5 -47.5 44.5 -145.5h-112q0 99 -57 99q-34 0 -49 -35t-15 -107v-34q0 -73 15.5 -108t51.5 -35q30 0 43.5 24.5t13.5 75.5h109q0 -98 -43.5 -145.5t-122.5 -47.5q-94 0 -138.5 61t-44.5 191t45 192t135 62q80 0 124.5 -47.5z
" />
    <glyph glyph-name="ccaron" unicode="&#x10d;" horiz-adv-x="419" 
d="M95 665h83l40 -64l41 64h83l-78 -124h-90zM341.5 447.5q44.5 -47.5 44.5 -145.5h-112q0 99 -57 99q-34 0 -49 -35t-15 -107v-34q0 -73 15.5 -108t51.5 -35q30 0 43.5 24.5t13.5 75.5h109q0 -98 -43.5 -145.5t-122.5 -47.5q-94 0 -138.5 61t-44.5 191t45 192t135 62
q80 0 124.5 -47.5z" />
    <glyph glyph-name="ccedilla" unicode="&#xe7;" horiz-adv-x="419" 
d="M341.5 447.5q44.5 -47.5 44.5 -145.5h-112q0 99 -57 99q-34 0 -49 -35t-15 -107v-34q0 -73 15.5 -108t51.5 -35q30 0 43.5 24.5t13.5 75.5h109q0 -92 -38 -139t-107 -53l-2 -20q33 -2 53 -17.5t20 -45.5q0 -41 -30.5 -57.5t-70.5 -16.5q-38 0 -77 7v45h66q33 0 33 22
q0 12 -7 17t-24 5h-30l7 64q-73 11 -107.5 72t-34.5 176q0 130 45 192t135 62q80 0 124.5 -47.5z" />
    <glyph glyph-name="ccircumflex" unicode="&#x109;" horiz-adv-x="419" 
d="M218 604l-40 -63h-83l79 124h90l78 -124h-83zM341.5 447.5q44.5 -47.5 44.5 -145.5h-112q0 99 -57 99q-34 0 -49 -35t-15 -107v-34q0 -73 15.5 -108t51.5 -35q30 0 43.5 24.5t13.5 75.5h109q0 -98 -43.5 -145.5t-122.5 -47.5q-94 0 -138.5 61t-44.5 191t45 192t135 62
q80 0 124.5 -47.5z" />
    <glyph glyph-name="cdotaccent" unicode="&#x10b;" horiz-adv-x="419" 
d="M170 665h97v-107h-97v107zM341.5 447.5q44.5 -47.5 44.5 -145.5h-112q0 99 -57 99q-34 0 -49 -35t-15 -107v-34q0 -73 15.5 -108t51.5 -35q30 0 43.5 24.5t13.5 75.5h109q0 -98 -43.5 -145.5t-122.5 -47.5q-94 0 -138.5 61t-44.5 191t45 192t135 62q80 0 124.5 -47.5z
" />
    <glyph glyph-name="d" unicode="d" horiz-adv-x="461" 
d="M307 59h-4q-18 -35 -46.5 -52.5t-63.5 -17.5q-74 0 -115 63t-41 190q0 126 41.5 189.5t108.5 63.5q37 0 66 -16.5t42 -44.5h5v231h110v-665h-92zM170 360q-17 -34 -17 -101v-34q0 -68 17 -102t56 -34t56.5 34t17.5 102v33q0 67 -17.5 101.5t-56.5 34.5t-56 -34z" />
    <glyph glyph-name="eth" unicode="&#xf0;" horiz-adv-x="461" 
d="M283 621l119 10v-66l-68 -7q90 -131 90 -317q0 -129 -48 -190.5t-145 -61.5q-98 0 -146 61.5t-48 190.5q0 123 44.5 188.5t123.5 65.5q21 0 45 -7l3 3q-14 26 -35 56l-119 -10v67l69 6q-12 14 -34 36l-14 15l2 4h115q13 -11 46 -44zM171 366q-18 -35 -18 -107v-34
q0 -73 18 -108t60 -35t60 35t18 108v34q0 72 -18 107t-60 35t-60 -35z" />
    <glyph glyph-name="dcaron" unicode="&#x10f;" horiz-adv-x="542" 
d="M307 59h-4q-18 -35 -46.5 -52.5t-63.5 -17.5q-74 0 -115 63t-41 190q0 126 41.5 189.5t108.5 63.5q37 0 66 -16.5t42 -44.5h5v231h110v-665h-92zM439 361l50 143h-50v126h127v-114l-62 -155h-65zM170 360q-17 -34 -17 -101v-34q0 -68 17 -102t56 -34t56.5 34t17.5 102v33
q0 67 -17.5 101.5t-56.5 34.5t-56 -34z" />
    <glyph glyph-name="dcroat" unicode="&#x111;" horiz-adv-x="464" 
d="M460 616v-80h-50v-536h-92l-11 59h-4q-18 -35 -46.5 -52.5t-63.5 -17.5q-74 0 -115 63t-41 190q0 126 41.5 189.5t108.5 63.5q37 0 66 -16.5t42 -44.5h5v102h-122v80h122v49h110v-49h50zM170 360q-17 -34 -17 -101v-34q0 -68 17 -102t56 -34t56.5 34t17.5 102v33
q0 67 -17.5 101.5t-56.5 34.5t-56 -34z" />
    <glyph glyph-name="e" unicode="e" horiz-adv-x="419" 
d="M345.5 433q43.5 -62 43.5 -192v-27h-245q1 -68 17.5 -101.5t56.5 -33.5q29 0 45.5 24.5t16.5 67.5h109q0 -90 -47 -136t-124 -46q-190 0 -190 252q0 254 186 254q88 0 131.5 -62zM163.5 377q-16.5 -28 -18.5 -83h129q0 54 -15 82.5t-45 28.5q-34 0 -50.5 -28z" />
    <glyph glyph-name="eacute" unicode="&#xe9;" horiz-adv-x="419" 
d="M237 543h-90l79 122h110l1 -4zM345.5 433q43.5 -62 43.5 -192v-27h-245q1 -68 17.5 -101.5t56.5 -33.5q29 0 45.5 24.5t16.5 67.5h109q0 -90 -47 -136t-124 -46q-190 0 -190 252q0 254 186 254q88 0 131.5 -62zM163.5 377q-16.5 -28 -18.5 -83h129q0 54 -15 82.5
t-45 28.5q-34 0 -50.5 -28z" />
    <glyph glyph-name="ebreve" unicode="&#x115;" horiz-adv-x="419" 
d="M317.5 618.5q-15.5 -22.5 -43.5 -37t-64 -14.5t-64 14.5t-43.5 37t-15.5 46.5h68q3 -11 18 -21t37 -10t37.5 10t17.5 21h68q0 -24 -15.5 -46.5zM345.5 433q43.5 -62 43.5 -192v-27h-245q1 -68 17.5 -101.5t56.5 -33.5q29 0 45.5 24.5t16.5 67.5h109q0 -90 -47 -136
t-124 -46q-190 0 -190 252q0 254 186 254q88 0 131.5 -62zM163.5 377q-16.5 -28 -18.5 -83h129q0 54 -15 82.5t-45 28.5q-34 0 -50.5 -28z" />
    <glyph glyph-name="ecaron" unicode="&#x11b;" horiz-adv-x="419" 
d="M86 665h84l40 -64l41 64h83l-78 -124h-91zM345.5 433q43.5 -62 43.5 -192v-27h-245q1 -68 17.5 -101.5t56.5 -33.5q29 0 45.5 24.5t16.5 67.5h109q0 -90 -47 -136t-124 -46q-190 0 -190 252q0 254 186 254q88 0 131.5 -62zM163.5 377q-16.5 -28 -18.5 -83h129
q0 54 -15 82.5t-45 28.5q-34 0 -50.5 -28z" />
    <glyph glyph-name="ecircumflex" unicode="&#xea;" horiz-adv-x="419" 
d="M210 604l-40 -63h-84l79 124h91l78 -124h-83zM345.5 433q43.5 -62 43.5 -192v-27h-245q1 -68 17.5 -101.5t56.5 -33.5q29 0 45.5 24.5t16.5 67.5h109q0 -90 -47 -136t-124 -46q-190 0 -190 252q0 254 186 254q88 0 131.5 -62zM163.5 377q-16.5 -28 -18.5 -83h129
q0 54 -15 82.5t-45 28.5q-34 0 -50.5 -28z" />
    <glyph glyph-name="edieresis" unicode="&#xeb;" horiz-adv-x="419" 
d="M83 565v100h93v-100h-93zM244 565v100h93v-100h-93zM345.5 433q43.5 -62 43.5 -192v-27h-245q1 -68 17.5 -101.5t56.5 -33.5q29 0 45.5 24.5t16.5 67.5h109q0 -90 -47 -136t-124 -46q-190 0 -190 252q0 254 186 254q88 0 131.5 -62zM163.5 377q-16.5 -28 -18.5 -83h129
q0 54 -15 82.5t-45 28.5q-34 0 -50.5 -28z" />
    <glyph glyph-name="edotaccent" unicode="&#x117;" horiz-adv-x="419" 
d="M161 665h98v-107h-98v107zM345.5 433q43.5 -62 43.5 -192v-27h-245q1 -68 17.5 -101.5t56.5 -33.5q29 0 45.5 24.5t16.5 67.5h109q0 -90 -47 -136t-124 -46q-190 0 -190 252q0 254 186 254q88 0 131.5 -62zM163.5 377q-16.5 -28 -18.5 -83h129q0 54 -15 82.5t-45 28.5
q-34 0 -50.5 -28z" />
    <glyph glyph-name="egrave" unicode="&#xe8;" horiz-adv-x="419" 
d="M182 543l-99 118v4h111l80 -122h-92zM345.5 433q43.5 -62 43.5 -192v-27h-245q1 -68 17.5 -101.5t56.5 -33.5q29 0 45.5 24.5t16.5 67.5h109q0 -90 -47 -136t-124 -46q-190 0 -190 252q0 254 186 254q88 0 131.5 -62zM163.5 377q-16.5 -28 -18.5 -83h129q0 54 -15 82.5
t-45 28.5q-34 0 -50.5 -28z" />
    <glyph glyph-name="emacron" unicode="&#x113;" horiz-adv-x="419" 
d="M93 630h235v-79h-235v79zM345.5 433q43.5 -62 43.5 -192v-27h-245q1 -68 17.5 -101.5t56.5 -33.5q29 0 45.5 24.5t16.5 67.5h109q0 -90 -47 -136t-124 -46q-190 0 -190 252q0 254 186 254q88 0 131.5 -62zM163.5 377q-16.5 -28 -18.5 -83h129q0 54 -15 82.5t-45 28.5
q-34 0 -50.5 -28z" />
    <glyph glyph-name="eogonek" unicode="&#x119;" horiz-adv-x="419" 
d="M389 214h-245q1 -68 17.5 -101.5t56.5 -33.5q29 0 45.5 24.5t16.5 67.5h109q0 -64 -24 -106t-68 -61q-10 -12 -18.5 -29t-8.5 -34q0 -20 10.5 -34t31.5 -14h20v-50q-37 -14 -61 -14q-36 0 -63.5 20t-27.5 64t27 76q-89 4 -134 66t-45 186q0 254 186 254q88 0 131.5 -62
t43.5 -192v-27zM274 294q0 54 -15 82.5t-45 28.5q-34 0 -50.5 -28t-18.5 -83h129z" />
    <glyph glyph-name="f" unicode="f" horiz-adv-x="251" 
d="M213.5 669q23.5 -3 37.5 -8v-82h-45q-39 0 -39 -39v-56h84v-93h-84v-391h-110v391h-49v93h49v59q0 55 26.5 92t87.5 37q19 0 42.5 -3z" />
    <glyph glyph-name="g" unicode="g" horiz-adv-x="461" 
d="M368 441q19 -21 29.5 -49.5t10.5 -61.5q0 -76 -47 -120.5t-133 -44.5h-46q-15 0 -24 -8t-9 -21q0 -12 8 -20.5t21 -8.5h166q48 0 80 -34.5t32 -91.5q0 -43 -21 -77t-57.5 -52.5t-79.5 -18.5h-176q-46 0 -76.5 31t-30.5 80q0 63 61 99q-18 11 -28.5 29t-10.5 42
q0 30 20 52.5t51 33.5q-28 21 -43 54.5t-15 75.5q0 76 46 120.5t132 44.5q46 0 81 -15q24 19 35.5 43.5t11.5 41.5h91q0 -100 -79 -124zM177.5 391.5q-17.5 -21.5 -17.5 -61.5q0 -39 17.5 -60.5t50.5 -21.5q34 0 51.5 21.5t17.5 60.5q0 40 -17.5 61.5t-51.5 21.5
q-33 0 -50.5 -21.5zM139 -8q-13 -13 -13 -30q0 -21 13 -33t32 -12h123q21 0 35.5 12t14.5 33q0 20 -13.5 31.5t-32.5 11.5h-127q-19 0 -32 -13z" />
    <glyph glyph-name="gbreve" unicode="&#x11f;" horiz-adv-x="461" 
d="M337.5 618.5q-15.5 -22.5 -43.5 -37t-64 -14.5t-64 14.5t-43.5 37t-15.5 46.5h69q2 -11 17.5 -21t36.5 -10q22 0 37.5 10t17.5 21h68q0 -24 -15.5 -46.5zM368 441q19 -21 29.5 -49.5t10.5 -61.5q0 -76 -47 -120.5t-133 -44.5h-46q-15 0 -24 -8t-9 -21q0 -12 8 -20.5
t21 -8.5h166q48 0 80 -34.5t32 -91.5q0 -43 -21 -77t-57.5 -52.5t-79.5 -18.5h-176q-46 0 -76.5 31t-30.5 80q0 63 61 99q-18 11 -28.5 29t-10.5 42q0 30 20 52.5t51 33.5q-28 21 -43 54.5t-15 75.5q0 76 46 120.5t132 44.5q46 0 81 -15q24 19 35.5 43.5t11.5 41.5h91
q0 -100 -79 -124zM177.5 391.5q-17.5 -21.5 -17.5 -61.5q0 -39 17.5 -60.5t50.5 -21.5q34 0 51.5 21.5t17.5 60.5q0 40 -17.5 61.5t-51.5 21.5q-33 0 -50.5 -21.5zM139 -8q-13 -13 -13 -30q0 -21 13 -33t32 -12h123q21 0 35.5 12t14.5 33q0 20 -13.5 31.5t-32.5 11.5h-127
q-19 0 -32 -13z" />
    <glyph glyph-name="gcircumflex" unicode="&#x11d;" horiz-adv-x="461" 
d="M231 604l-42 -63h-82l79 124h90l78 -124h-83zM368 441q19 -21 29.5 -49.5t10.5 -61.5q0 -76 -47 -120.5t-133 -44.5h-46q-15 0 -24 -8t-9 -21q0 -12 8 -20.5t21 -8.5h166q48 0 80 -34.5t32 -91.5q0 -43 -21 -77t-57.5 -52.5t-79.5 -18.5h-176q-46 0 -76.5 31t-30.5 80
q0 63 61 99q-18 11 -28.5 29t-10.5 42q0 30 20 52.5t51 33.5q-28 21 -43 54.5t-15 75.5q0 76 46 120.5t132 44.5q46 0 81 -15q66 4 66 85h72q0 -100 -79 -124zM177.5 391.5q-17.5 -21.5 -17.5 -61.5q0 -39 17.5 -60.5t50.5 -21.5q34 0 51.5 21.5t17.5 60.5q0 40 -17.5 61.5
t-51.5 21.5q-33 0 -50.5 -21.5zM139 -8q-13 -13 -13 -30q0 -21 13 -33t32 -12h123q21 0 35.5 12t14.5 33q0 20 -13.5 31.5t-32.5 11.5h-127q-19 0 -32 -13z" />
    <glyph glyph-name="gcommaaccent" unicode="&#x123;" horiz-adv-x="461" 
d="M277 655v-112h-115v103l43 87h60l-33 -78h45zM368 441q19 -21 29.5 -49.5t10.5 -61.5q0 -76 -47 -120.5t-133 -44.5h-46q-15 0 -24 -8t-9 -21q0 -12 8 -20.5t21 -8.5h166q48 0 80 -34.5t32 -91.5q0 -43 -21 -77t-57.5 -52.5t-79.5 -18.5h-176q-46 0 -76.5 31t-30.5 80
q0 63 61 99q-18 11 -28.5 29t-10.5 42q0 30 20 52.5t51 33.5q-28 21 -43 54.5t-15 75.5q0 76 46 120.5t132 44.5q46 0 81 -15q24 19 35.5 43.5t11.5 41.5h91q0 -100 -79 -124zM177.5 391.5q-17.5 -21.5 -17.5 -61.5q0 -39 17.5 -60.5t50.5 -21.5q34 0 51.5 21.5t17.5 60.5
q0 40 -17.5 61.5t-51.5 21.5q-33 0 -50.5 -21.5zM139 -8q-13 -13 -13 -30q0 -21 13 -33t32 -12h123q21 0 35.5 12t14.5 33q0 20 -13.5 31.5t-32.5 11.5h-127q-19 0 -32 -13z" />
    <glyph glyph-name="gdotaccent" unicode="&#x121;" horiz-adv-x="461" 
d="M181 665h99v-107h-99v107zM368 441q19 -21 29.5 -49.5t10.5 -61.5q0 -76 -47 -120.5t-133 -44.5h-46q-15 0 -24 -8t-9 -21q0 -12 8 -20.5t21 -8.5h166q48 0 80 -34.5t32 -91.5q0 -43 -21 -77t-57.5 -52.5t-79.5 -18.5h-176q-46 0 -76.5 31t-30.5 80q0 63 61 99
q-18 11 -28.5 29t-10.5 42q0 30 20 52.5t51 33.5q-28 21 -43 54.5t-15 75.5q0 76 46 120.5t132 44.5q46 0 81 -15q24 19 35.5 43.5t11.5 41.5h91q0 -100 -79 -124zM177.5 391.5q-17.5 -21.5 -17.5 -61.5q0 -39 17.5 -60.5t50.5 -21.5q34 0 51.5 21.5t17.5 60.5
q0 40 -17.5 61.5t-51.5 21.5q-33 0 -50.5 -21.5zM139 -8q-13 -13 -13 -30q0 -21 13 -33t32 -12h123q21 0 35.5 12t14.5 33q0 20 -13.5 31.5t-32.5 11.5h-127q-19 0 -32 -13z" />
    <glyph glyph-name="h" unicode="h" horiz-adv-x="461" 
d="M213 477q30 18 69 18q59 0 93.5 -37.5t34.5 -118.5v-339h-110v309q0 45 -16.5 65t-47.5 20q-32 0 -53.5 -27.5t-21.5 -69.5v-297h-110v665h110v-233h3q19 27 49 45z" />
    <glyph glyph-name="hbar" unicode="&#x127;" horiz-adv-x="461" 
d="M282 616v-80h-121v-104h3q19 27 49 45t69 18q59 0 93.5 -37.5t34.5 -118.5v-339h-110v309q0 45 -16.5 65t-47.5 20q-32 0 -53.5 -27.5t-21.5 -69.5v-297h-110v536h-51v80h51v49h110v-49h121z" />
    <glyph glyph-name="hcircumflex" unicode="&#x125;" horiz-adv-x="461" 
d="M104 751l-42 -64h-82l79 125h90l78 -125h-82zM213 477q30 18 69 18q59 0 93.5 -37.5t34.5 -118.5v-339h-110v309q0 45 -16.5 65t-47.5 20q-32 0 -53.5 -27.5t-21.5 -69.5v-297h-110v665h110v-233h3q19 27 49 45z" />
    <glyph glyph-name="i" unicode="i" horiz-adv-x="210" 
d="M50 665h110v-100h-110v100zM50 484h110v-484h-110v484z" />
    <glyph glyph-name="dotlessi" unicode="&#x131;" horiz-adv-x="210" 
d="M50 484h110v-484h-110v484z" />
    <glyph glyph-name="iacute" unicode="&#xed;" horiz-adv-x="210" 
d="M133 543h-91l79 122h110l1 -4zM50 0v484h110v-484h-110z" />
    <glyph glyph-name="ibreve" unicode="&#x12d;" horiz-adv-x="210" 
d="M212.5 618.5q-15.5 -22.5 -43.5 -37t-64 -14.5t-64.5 14.5t-44 37t-15.5 46.5h70q2 -11 17.5 -21t36.5 -10q22 0 37.5 10t17.5 21h68q0 -24 -15.5 -46.5zM50 484h110v-484h-110v484z" />
    <glyph glyph-name="icircumflex" unicode="&#xee;" horiz-adv-x="210" 
d="M106 604l-42 -63h-84l80 124h91l78 -124h-82zM50 484h110v-484h-110v484z" />
    <glyph glyph-name="idieresis" unicode="&#xef;" horiz-adv-x="210" 
d="M-21 565v100h92v-100h-92zM139 565v100h93v-100h-93zM50 0v484h110v-484h-110z" />
    <glyph glyph-name="igrave" unicode="&#xec;" horiz-adv-x="210" 
d="M77 543l-99 118l1 4h110l79 -122h-91zM50 0v484h110v-484h-110z" />
    <glyph glyph-name="ij" unicode="&#x133;" horiz-adv-x="419" 
d="M50 565v100h110v-100h-110zM259 565v100h110v-100h-110zM50 0v484h110v-484h-110zM343.5 -130q-25.5 -37 -85.5 -37q-21 0 -44.5 3t-37.5 8v81h40q21 0 32 11.5t11 33.5v514h110v-521q0 -56 -25.5 -93z" />
    <glyph glyph-name="imacron" unicode="&#x12b;" horiz-adv-x="210" 
d="M-12 630h235v-79h-235v79zM50 484h110v-484h-110v484z" />
    <glyph glyph-name="iogonek" unicode="&#x12f;" horiz-adv-x="210" 
d="M56 558v107h99v-107h-99zM141 -29q-9 -18 -9 -35q0 -20 10.5 -33.5t31.5 -13.5h20v-51q-30 -13 -61 -13q-36 0 -63 20t-27 63q0 30 10.5 51.5t29.5 40.5h-33v484h110v-484q-10 -11 -19 -29z" />
    <glyph glyph-name="itilde" unicode="&#x129;" horiz-adv-x="210" 
d="M237 587q-23 -35 -67 -35q-15 0 -30 4.5t-34 13.5q-36 17 -58 17q-30 0 -37 -35h-61q0 44 23 78.5t68 34.5q15 0 30 -4.5t34 -13.5q36 -17 58 -17q15 0 23.5 8t12.5 27h61q0 -43 -23 -78zM50 484h110v-484h-110v484z" />
    <glyph glyph-name="j" unicode="j" horiz-adv-x="210" 
d="M50 665h110v-100h-110v100zM134.5 -130q-25.5 -37 -86.5 -37q-21 0 -44 3t-38 8v81h40q44 0 44 45v514h110v-521q0 -56 -25.5 -93z" />
    <glyph glyph-name="jcircumflex" unicode="&#x135;" horiz-adv-x="210" 
d="M107 604l-41 -63h-84l79 124h92l77 -124h-82zM134.5 -130q-25.5 -37 -86.5 -37q-21 0 -44 3t-38 8v81h40q44 0 44 45v514h110v-521q0 -56 -25.5 -93z" />
    <glyph glyph-name="k" unicode="k" horiz-adv-x="419" 
d="M413 484l-144 -197l151 -287h-123l-96 201l-41 -50v-151h-110v665h110v-374l135 193h118z" />
    <glyph glyph-name="kcommaaccent" unicode="&#x137;" horiz-adv-x="419" 
d="M413 484l-144 -197l151 -287h-123l-96 201l-41 -50v-151h-110v665h110v-374l135 193h118zM165 -241l33 78h-44v112h112v-103l-40 -87h-61z" />
    <glyph glyph-name="kgreenlandic" unicode="&#x138;" horiz-adv-x="420" 
d="M297 0l-96 201l-41 -50v-151h-110v484h110v-193l135 193h118l-144 -197l151 -287h-123z" />
    <glyph glyph-name="l" unicode="l" horiz-adv-x="210" 
d="M50 665h110v-665h-110v665z" />
    <glyph glyph-name="lacute" unicode="&#x13a;" horiz-adv-x="210" 
d="M133 691h-91l79 121h110l1 -3zM50 0v665h110v-665h-110z" />
    <glyph glyph-name="lcaron" unicode="&#x13e;" horiz-adv-x="290" 
d="M50 665h110v-665h-110v665zM208 361l50 143h-50v126h127v-114l-61 -155h-66z" />
    <glyph glyph-name="lcommaaccent" unicode="&#x13c;" horiz-adv-x="210" 
d="M50 665h110v-665h-110v665zM60 -241l34 78h-45v112h113v-103l-41 -87h-61z" />
    <glyph glyph-name="ldot" unicode="&#x140;" horiz-adv-x="307" 
d="M50 665h110v-665h-110v665zM196 376h111v-120h-111v120z" />
    <glyph glyph-name="lslash" unicode="&#x142;" horiz-adv-x="210" 
d="M233 375l-73 -64v-311h-110v212l-62 -55v88l62 56v364h110v-266l73 65v-89z" />
    <glyph glyph-name="m" unicode="m" horiz-adv-x="670" 
d="M622 339v-339h-110v309q0 46 -13 65.5t-41 19.5t-47.5 -25t-19.5 -64v-305h-109v309q0 46 -13.5 65.5t-41.5 19.5q-29 0 -47.5 -27t-18.5 -70v-297h-110v484h91l12 -60h5q19 32 48 51.5t67 19.5q77 0 104 -71q20 31 52 51t73 20q119 0 119 -156z" />
    <glyph glyph-name="n" unicode="n" horiz-adv-x="461" 
d="M375.5 457.5q34.5 -37.5 34.5 -118.5v-339h-110v309q0 45 -16.5 65t-47.5 20q-32 0 -53.5 -27.5t-21.5 -69.5v-297h-110v484h91l12 -60h5q21 32 51.5 51.5t71.5 19.5q59 0 93.5 -37.5z" />
    <glyph glyph-name="nacute" unicode="&#x144;" horiz-adv-x="461" 
d="M258 543h-91l79 122h111l1 -4zM375.5 457.5q34.5 -37.5 34.5 -118.5v-339h-110v309q0 45 -16.5 65t-47.5 20q-32 0 -53.5 -27.5t-21.5 -69.5v-297h-110v484h91l12 -60h5q21 32 51.5 51.5t71.5 19.5q59 0 93.5 -37.5z" />
    <glyph glyph-name="napostrophe" unicode="&#x149;" horiz-adv-x="622" 
d="M134 440h-59l32 78h-46v112h115v-103zM536.5 457.5q34.5 -37.5 34.5 -118.5v-339h-110v309q0 45 -16.5 65t-47.5 20q-32 0 -54 -27.5t-22 -69.5v-297h-110v484h93l10 -60h6q20 31 51 51t71 20q60 0 94.5 -37.5z" />
    <glyph glyph-name="ncaron" unicode="&#x148;" horiz-adv-x="461" 
d="M107 665h82l42 -64l40 64h83l-78 -124h-90zM375.5 457.5q34.5 -37.5 34.5 -118.5v-339h-110v309q0 45 -16.5 65t-47.5 20q-32 0 -53.5 -27.5t-21.5 -69.5v-297h-110v484h91l12 -60h5q21 32 51.5 51.5t71.5 19.5q59 0 93.5 -37.5z" />
    <glyph glyph-name="ncommaaccent" unicode="&#x146;" horiz-adv-x="461" 
d="M375.5 457.5q34.5 -37.5 34.5 -118.5v-339h-110v309q0 45 -16.5 65t-47.5 20q-32 0 -53.5 -27.5t-21.5 -69.5v-297h-110v484h91l12 -60h5q21 32 51.5 51.5t71.5 19.5q59 0 93.5 -37.5zM186 -241l32 78h-44v112h113v-103l-42 -87h-59z" />
    <glyph glyph-name="eng" unicode="&#x14b;" horiz-adv-x="461" 
d="M375.5 457.5q34.5 -37.5 34.5 -118.5v-376q0 -56 -26 -93t-87 -37q-20 0 -43.5 3t-37.5 8v81h41q21 0 32 11.5t11 33.5v339q0 45 -16.5 65t-47.5 20q-32 0 -53.5 -27.5t-21.5 -69.5v-297h-110v484h91l12 -60h5q21 32 51.5 51.5t71.5 19.5q59 0 93.5 -37.5z" />
    <glyph glyph-name="ntilde" unicode="&#xf1;" horiz-adv-x="461" 
d="M362 586.5q-23 -34.5 -68 -34.5q-15 0 -29.5 4.5t-33.5 13.5q-36 17 -58 17q-32 0 -36 -35h-61q0 44 23 78.5t67 34.5q15 0 30 -4.5t34 -13.5q19 -8 32 -12.5t27 -4.5q31 0 35 35h61q0 -44 -23 -78.5zM375.5 457.5q34.5 -37.5 34.5 -118.5v-339h-110v309q0 45 -16.5 65
t-47.5 20q-32 0 -53.5 -27.5t-21.5 -69.5v-297h-110v484h91l12 -60h5q21 32 51.5 51.5t71.5 19.5q59 0 93.5 -37.5z" />
    <glyph glyph-name="o" unicode="o" horiz-adv-x="461" 
d="M376.5 433q47.5 -62 47.5 -192q0 -129 -48 -190.5t-145 -61.5q-98 0 -146 61.5t-48 190.5q0 130 48 192t146 62t145.5 -62zM171 366q-18 -35 -18 -107v-34q0 -73 18 -108t60 -35t60 35t18 108v34q0 72 -18 107t-60 35t-60 -35z" />
    <glyph glyph-name="oacute" unicode="&#xf3;" horiz-adv-x="461" 
d="M258 543h-91l79 122h111l1 -4zM376.5 433q47.5 -62 47.5 -192q0 -129 -48 -190.5t-145 -61.5q-98 0 -146 61.5t-48 190.5q0 130 48 192t146 62t145.5 -62zM171 366q-18 -35 -18 -107v-34q0 -73 18 -108t60 -35t60 35t18 108v34q0 72 -18 107t-60 35t-60 -35z" />
    <glyph glyph-name="obreve" unicode="&#x14f;" horiz-adv-x="461" 
d="M337.5 618.5q-15.5 -22.5 -43.5 -37t-64 -14.5t-64 14.5t-43.5 37t-15.5 46.5h69q2 -11 17.5 -21t36.5 -10q22 0 37.5 10t17.5 21h68q0 -24 -15.5 -46.5zM376.5 433q47.5 -62 47.5 -192q0 -129 -48 -190.5t-145 -61.5q-98 0 -146 61.5t-48 190.5q0 130 48 192t146 62
t145.5 -62zM171 366q-18 -35 -18 -107v-34q0 -73 18 -108t60 -35t60 35t18 108v34q0 72 -18 107t-60 35t-60 -35z" />
    <glyph glyph-name="ocircumflex" unicode="&#xf4;" horiz-adv-x="461" 
d="M231 604l-42 -63h-82l79 124h90l78 -124h-83zM376.5 433q47.5 -62 47.5 -192q0 -129 -48 -190.5t-145 -61.5q-98 0 -146 61.5t-48 190.5q0 130 48 192t146 62t145.5 -62zM171 366q-18 -35 -18 -107v-34q0 -73 18 -108t60 -35t60 35t18 108v34q0 72 -18 107t-60 35
t-60 -35z" />
    <glyph glyph-name="odieresis" unicode="&#xf6;" horiz-adv-x="461" 
d="M104 565v100h92v-100h-92zM265 565v100h92v-100h-92zM376.5 433q47.5 -62 47.5 -192q0 -129 -48 -190.5t-145 -61.5q-98 0 -146 61.5t-48 190.5q0 130 48 192t146 62t145.5 -62zM171 366q-18 -35 -18 -107v-34q0 -73 18 -108t60 -35t60 35t18 108v34q0 72 -18 107t-60 35
t-60 -35z" />
    <glyph glyph-name="ograve" unicode="&#xf2;" horiz-adv-x="461" 
d="M202 543l-99 118l1 4h110l79 -122h-91zM376.5 433q47.5 -62 47.5 -192q0 -129 -48 -190.5t-145 -61.5q-98 0 -146 61.5t-48 190.5q0 130 48 192t146 62t145.5 -62zM171 366q-18 -35 -18 -107v-34q0 -73 18 -108t60 -35t60 35t18 108v34q0 72 -18 107t-60 35t-60 -35z" />
    <glyph glyph-name="ohungarumlaut" unicode="&#x151;" horiz-adv-x="461" 
d="M127 543l57 122h92l1 -4l-77 -118h-73zM256 543l57 122h92l1 -4l-77 -118h-73zM376.5 433q47.5 -62 47.5 -192q0 -129 -48 -190.5t-145 -61.5q-98 0 -146 61.5t-48 190.5q0 130 48 192t146 62t145.5 -62zM171 366q-18 -35 -18 -107v-34q0 -73 18 -108t60 -35t60 35
t18 108v34q0 72 -18 107t-60 35t-60 -35z" />
    <glyph glyph-name="omacron" unicode="&#x14d;" horiz-adv-x="461" 
d="M113 630h234v-79h-234v79zM376.5 433q47.5 -62 47.5 -192q0 -129 -48 -190.5t-145 -61.5q-98 0 -146 61.5t-48 190.5q0 130 48 192t146 62t145.5 -62zM171 366q-18 -35 -18 -107v-34q0 -73 18 -108t60 -35t60 35t18 108v34q0 72 -18 107t-60 35t-60 -35z" />
    <glyph glyph-name="oslash" unicode="&#xf8;" horiz-adv-x="461" 
d="M424 241q0 -129 -48 -190.5t-145 -61.5q-53 0 -94 19l-21 -37h-68l41 75q-52 63 -52 195q0 130 48 192t146 62q53 0 91 -20l21 38h69l-41 -74q53 -62 53 -198zM171 366q-18 -35 -18 -107v-34q0 -23 2 -57l119 219q-17 14 -43 14q-42 0 -60 -35zM231 82q42 0 60 35t18 108
v34q0 24 -4 58l-119 -219q17 -16 45 -16z" />
    <glyph glyph-name="oslashacute" unicode="&#x1ff;" horiz-adv-x="461" 
d="M258 543h-91l79 122h111l1 -4zM424 241q0 -129 -48 -190.5t-145 -61.5q-53 0 -94 19l-21 -37h-68l41 75q-52 63 -52 195q0 130 48 192t146 62q53 0 91 -20l21 38h69l-41 -74q53 -62 53 -198zM171 366q-18 -35 -18 -107v-34q0 -23 2 -57l119 219q-17 14 -43 14
q-42 0 -60 -35zM231 82q42 0 60 35t18 108v34q0 24 -4 58l-119 -219q17 -16 45 -16z" />
    <glyph glyph-name="otilde" unicode="&#xf5;" horiz-adv-x="461" 
d="M362 586.5q-23 -34.5 -68 -34.5q-15 0 -29.5 4.5t-33.5 13.5q-36 17 -58 17q-32 0 -36 -35h-61q0 44 23 78.5t67 34.5q15 0 30 -4.5t34 -13.5q19 -8 32 -12.5t27 -4.5q31 0 35 35h61q0 -44 -23 -78.5zM376.5 433q47.5 -62 47.5 -192q0 -129 -48 -190.5t-145 -61.5
q-98 0 -146 61.5t-48 190.5q0 130 48 192t146 62t145.5 -62zM171 366q-18 -35 -18 -107v-34q0 -73 18 -108t60 -35t60 35t18 108v34q0 72 -18 107t-60 35t-60 -35z" />
    <glyph glyph-name="oe" unicode="&#x153;" horiz-adv-x="711" 
d="M627 433.5q43 -61.5 43 -192.5v-27h-246q1 -67 18.5 -101t56.5 -34q29 0 45.5 24.5t16.5 67.5h109q0 -90 -46.5 -136t-124.5 -46q-87 0 -132 60q-47 -60 -136 -60q-98 0 -146 61.5t-48 190.5q0 130 48 192t146 62q89 0 135 -61q46 61 129 61q89 0 132 -61.5zM445 377
q-16 -28 -20 -83h129q0 111 -59 111q-34 0 -50 -28zM171 366q-18 -35 -18 -107v-34q0 -73 18 -108t60 -35t60 35t18 108v34q0 72 -18 107t-60 35t-60 -35z" />
    <glyph glyph-name="p" unicode="p" horiz-adv-x="461" 
d="M382 432q41 -63 41 -191q0 -126 -41 -189t-108 -63q-37 0 -66.5 16t-42.5 45h-4v-209h-110v643h91l12 -60h4q18 35 46.5 53t62.5 18q74 0 115 -63zM178 360q-17 -34 -17 -101v-33q0 -68 17 -102.5t56 -34.5t56.5 34t17.5 102v34q0 68 -17.5 101.5t-56.5 33.5t-56 -34z
" />
    <glyph glyph-name="thorn" unicode="&#xfe;" horiz-adv-x="461" 
d="M382 432q41 -63 41 -191q0 -126 -41 -189t-108 -63q-37 0 -66.5 16t-42.5 45h-4v-209h-110v824h110v-236q18 32 45.5 49t60.5 17q74 0 115 -63zM308 259q0 68 -17.5 101.5t-56.5 33.5t-56 -34t-17 -101v-33q0 -68 17 -102.5t56 -34.5t56.5 34t17.5 102v34z" />
    <glyph glyph-name="q" unicode="q" horiz-adv-x="461" 
d="M256.5 477q28.5 -18 46.5 -53h4l11 60h92v-643h-110v209h-5q-13 -29 -42 -45t-66 -16q-67 0 -108.5 63t-41.5 189q0 128 41 191t115 63q35 0 63.5 -18zM170 360q-17 -34 -17 -101v-34q0 -68 17 -102t56 -34t56.5 34.5t17.5 102.5v33q0 68 -17.5 101.5t-56.5 33.5t-56 -34
z" />
    <glyph glyph-name="r" unicode="r" horiz-adv-x="293" 
d="M275 492q12 -3 15 -4v-107h-39q-40 0 -65 -26t-25 -86v-269h-110v484h91l13 -71h6q12 36 31 59t52 23q19 0 31 -3z" />
    <glyph glyph-name="racute" unicode="&#x155;" horiz-adv-x="293" 
d="M131 543h-93l80 122h111l1 -4zM275 492q12 -3 15 -4v-107h-39q-40 0 -65 -26t-25 -86v-269h-110v484h91l13 -71h6q12 36 31 59t52 23q19 0 31 -3z" />
    <glyph glyph-name="rcaron" unicode="&#x159;" horiz-adv-x="293" 
d="M-21 665h82l42 -64l41 64h82l-78 -124h-90zM275 492q12 -3 15 -4v-107h-39q-40 0 -65 -26t-25 -86v-269h-110v484h91l13 -71h6q12 36 31 59t52 23q19 0 31 -3z" />
    <glyph glyph-name="rcommaaccent" unicode="&#x157;" horiz-adv-x="293" 
d="M275 492q12 -3 15 -4v-107h-39q-40 0 -65 -26t-25 -86v-269h-110v484h91l13 -71h6q12 36 31 59t52 23q19 0 31 -3zM67 -241l32 78h-45v112h114v-103l-42 -87h-59z" />
    <glyph glyph-name="s" unicode="s" horiz-adv-x="419" 
d="M328 459.5q46 -35.5 46 -96.5l-1 -21h-112v2q-1 30 -15 45.5t-39 15.5q-26 0 -41.5 -13t-15.5 -35q0 -26 21 -37.5t66 -23.5q46 -12 76 -25t51.5 -43t21.5 -82q0 -157 -180 -157q-82 0 -129 42t-47 111l1 12h113v-7q1 -35 20 -51.5t46 -16.5q26 0 45 12.5t19 39.5
q0 30 -22.5 43t-70.5 27q-45 12 -74 25.5t-49.5 42t-20.5 78.5q0 71 48.5 109.5t124.5 38.5q72 0 118 -35.5z" />
    <glyph glyph-name="sacute" unicode="&#x15b;" horiz-adv-x="419" 
d="M237 543h-90l79 122h110l1 -4zM328 459.5q46 -35.5 46 -96.5l-1 -21h-112v2q-1 30 -15 45.5t-39 15.5q-26 0 -41.5 -13t-15.5 -35q0 -26 21 -37.5t66 -23.5q46 -12 76 -25t51.5 -43t21.5 -82q0 -157 -180 -157q-82 0 -129 42t-47 111l1 12h113v-7q1 -35 20 -51.5
t46 -16.5q26 0 45 12.5t19 39.5q0 30 -22.5 43t-70.5 27q-45 12 -74 25.5t-49.5 42t-20.5 78.5q0 71 48.5 109.5t124.5 38.5q72 0 118 -35.5z" />
    <glyph glyph-name="scaron" unicode="&#x161;" horiz-adv-x="419" 
d="M165 541l-79 124h84l40 -64l41 64h83l-78 -124h-91zM328 459.5q46 -35.5 46 -96.5l-1 -21h-112v2q-1 30 -15 45.5t-39 15.5q-26 0 -41.5 -13t-15.5 -35q0 -26 21 -37.5t66 -23.5q46 -12 76 -25t51.5 -43t21.5 -82q0 -157 -180 -157q-82 0 -129 42t-47 111l1 12h113v-7
q1 -35 20 -51.5t46 -16.5q26 0 45 12.5t19 39.5q0 30 -22.5 43t-70.5 27q-45 12 -74 25.5t-49.5 42t-20.5 78.5q0 71 48.5 109.5t124.5 38.5q72 0 118 -35.5z" />
    <glyph glyph-name="scedilla" unicode="&#x15f;" horiz-adv-x="419" 
d="M328 459.5q46 -35.5 46 -96.5l-1 -21h-112v2q-1 30 -15 45.5t-39 15.5q-26 0 -41.5 -13t-15.5 -35q0 -26 21 -37.5t66 -23.5q46 -12 76 -25t51.5 -43t21.5 -82q0 -78 -42 -114.5t-116 -41.5l-2 -20q32 -2 52 -17.5t20 -45.5q0 -41 -30 -57.5t-69 -16.5q-38 0 -77 7v45h64
q17 0 25 5t8 17t-7 17t-24 5h-30l7 63q-64 9 -99.5 49t-35.5 101l1 12h113v-7q1 -35 20 -51.5t46 -16.5q26 0 45 12.5t19 39.5q0 30 -22.5 43t-70.5 27q-45 12 -74 25.5t-49.5 42t-20.5 78.5q0 71 48.5 109.5t124.5 38.5q72 0 118 -35.5z" />
    <glyph glyph-name="scircumflex" unicode="&#x15d;" horiz-adv-x="419" 
d="M251 541l-41 63l-40 -63h-84l79 124h91l78 -124h-83zM328 459.5q46 -35.5 46 -96.5l-1 -21h-112v2q-1 30 -15 45.5t-39 15.5q-26 0 -41.5 -13t-15.5 -35q0 -26 21 -37.5t66 -23.5q46 -12 76 -25t51.5 -43t21.5 -82q0 -157 -180 -157q-82 0 -129 42t-47 111l1 12h113v-7
q1 -35 20 -51.5t46 -16.5q26 0 45 12.5t19 39.5q0 30 -22.5 43t-70.5 27q-45 12 -74 25.5t-49.5 42t-20.5 78.5q0 71 48.5 109.5t124.5 38.5q72 0 118 -35.5z" />
    <glyph glyph-name="scommaaccent" unicode="&#x219;" horiz-adv-x="419" 
d="M30 0zM328 459.5q46 -35.5 46 -96.5l-1 -21h-112v2q-1 30 -15 45.5t-39 15.5q-26 0 -41.5 -13t-15.5 -35q0 -26 21 -37.5t66 -23.5q46 -12 76 -25t51.5 -43t21.5 -82q0 -157 -180 -157q-82 0 -129 42t-47 111l1 12h113v-7q1 -35 20 -51.5t46 -16.5q26 0 45 12.5t19 39.5
q0 30 -22.5 43t-70.5 27q-45 12 -74 25.5t-49.5 42t-20.5 78.5q0 71 48.5 109.5t124.5 38.5q72 0 118 -35.5zM165 -241l34 78h-46v112h114v-103l-42 -87h-60z" />
    <glyph glyph-name="germandbls" unicode="&#xdf;" horiz-adv-x="461" 
d="M365 629.5q51 -46.5 51 -126.5q0 -45 -24.5 -84.5t-62.5 -55.5v-3q46 -17 76 -63.5t30 -99.5q0 -58 -24.5 -103t-66.5 -69.5t-93 -24.5h-60v94h48q35 0 59.5 30.5t24.5 73.5q0 41 -24.5 70t-59.5 29h-48v104h45q28 0 48.5 29.5t20.5 70.5q0 37 -19.5 59t-56.5 22
t-59.5 -25t-22.5 -71v-486h-111v478q0 101 54.5 149.5t143.5 48.5q80 0 131 -46.5z" />
    <glyph glyph-name="longs" unicode="&#x17f;" horiz-adv-x="210" 
d="M213.5 669q23.5 -3 37.5 -8v-82h-45q-39 0 -39 -39v-540h-110v391h-49v93h49v59q0 55 26.5 92t87.5 37q19 0 42.5 -3z" />
    <glyph glyph-name="t" unicode="t" horiz-adv-x="251" 
d="M237 391h-70v-269q0 -19 10 -29.5t29 -10.5h31v-82q-12 -4 -31.5 -7.5t-34.5 -3.5q-61 0 -87.5 37t-26.5 93v272h-49v93h49l17 136h93v-136h70v-93z" />
    <glyph glyph-name="tbar" unicode="&#x167;" horiz-adv-x="251" 
d="M237 484v-93h-70v-70h67v-80h-67v-119q0 -19 10 -29.5t29 -10.5h31v-82q-12 -4 -31.5 -7.5t-34.5 -3.5q-61 0 -87.5 37t-26.5 93v122h-47v80h47v70h-49v93h49l17 136h93v-136h70z" />
    <glyph glyph-name="tcaron" unicode="&#x165;" horiz-adv-x="361" 
d="M287 391l40 113h-51v126h126v-114l-49 -125h-66zM237 391h-70v-269q0 -19 10 -29.5t29 -10.5h31v-82q-12 -4 -31.5 -7.5t-34.5 -3.5q-61 0 -87.5 37t-26.5 93v272h-49v93h49l17 136h93v-136h70v-93z" />
    <glyph glyph-name="uni0163" unicode="&#x163;" horiz-adv-x="251" 
d="M219 -47.5q20 -15.5 20 -45.5q0 -41 -30.5 -57.5t-69.5 -16.5q-38 0 -77 7v45h66q16 0 24 5t8 17t-7 17t-24 5h-30l9 75q-27 16 -39 46.5t-12 68.5v272h-49v93h49l17 136h93v-136h70v-93h-70v-269q0 -19 10 -29.5t29 -10.5h31v-82q-12 -4 -31.5 -7.5t-34.5 -3.5h-2
l-2 -19q32 -2 52 -17.5z" />
    <glyph glyph-name="uni021B" unicode="&#x21b;" horiz-adv-x="251" 
d="M237 391h-70v-269q0 -19 10 -29.5t29 -10.5h31v-82q-12 -4 -31.5 -7.5t-34.5 -3.5q-61 0 -87.5 37t-26.5 93v272h-49v93h49l17 136h93v-136h70v-93zM81 -241l33 78h-45v112h114v-103l-43 -87h-59z" />
    <glyph glyph-name="u" unicode="u" horiz-adv-x="461" 
d="M307 59h-5q-21 -31 -52 -50.5t-71 -19.5q-60 0 -94 37t-34 119v339h110v-309q0 -46 16 -66t48 -20t53.5 27.5t21.5 67.5v300h110v-484h-92z" />
    <glyph glyph-name="uacute" unicode="&#xfa;" horiz-adv-x="461" 
d="M258 543h-91l79 122h111l1 -4zM318 0l-11 59h-5q-21 -31 -52 -50.5t-71 -19.5q-60 0 -94 37t-34 119v339h110v-309q0 -46 16 -66t48 -20t53.5 27.5t21.5 67.5v300h110v-484h-92z" />
    <glyph glyph-name="ubreve" unicode="&#x16d;" horiz-adv-x="461" 
d="M337.5 618.5q-15.5 -22.5 -43.5 -37t-64 -14.5t-64 14.5t-43.5 37t-15.5 46.5h69q2 -11 17.5 -21t36.5 -10q22 0 37.5 10t17.5 21h68q0 -24 -15.5 -46.5zM307 59h-5q-21 -31 -52 -50.5t-71 -19.5q-60 0 -94 37t-34 119v339h110v-309q0 -46 16 -66t48 -20t53.5 27.5
t21.5 67.5v300h110v-484h-92z" />
    <glyph glyph-name="ucircumflex" unicode="&#xfb;" horiz-adv-x="461" 
d="M231 604l-42 -63h-82l79 124h90l78 -124h-83zM307 59h-5q-21 -31 -52 -50.5t-71 -19.5q-60 0 -94 37t-34 119v339h110v-309q0 -46 16 -66t48 -20t53.5 27.5t21.5 67.5v300h110v-484h-92z" />
    <glyph glyph-name="udieresis" unicode="&#xfc;" horiz-adv-x="461" 
d="M104 565v100h92v-100h-92zM265 565v100h92v-100h-92zM318 0l-11 59h-5q-21 -31 -52 -50.5t-71 -19.5q-60 0 -94 37t-34 119v339h110v-309q0 -46 16 -66t48 -20t53.5 27.5t21.5 67.5v300h110v-484h-92z" />
    <glyph glyph-name="ugrave" unicode="&#xf9;" horiz-adv-x="461" 
d="M202 543l-99 118l1 4h110l79 -122h-91zM318 0l-11 59h-5q-21 -31 -52 -50.5t-71 -19.5q-60 0 -94 37t-34 119v339h110v-309q0 -46 16 -66t48 -20t53.5 27.5t21.5 67.5v300h110v-484h-92z" />
    <glyph glyph-name="uhungarumlaut" unicode="&#x171;" horiz-adv-x="461" 
d="M200 543h-73l57 122h92l1 -4zM329 543h-73l57 122h92l1 -4zM318 0l-11 59h-5q-21 -31 -52 -50.5t-71 -19.5q-60 0 -94 37t-34 119v339h110v-309q0 -46 16 -66t48 -20t53.5 27.5t21.5 67.5v300h110v-484h-92z" />
    <glyph glyph-name="umacron" unicode="&#x16b;" horiz-adv-x="461" 
d="M113 630h234v-79h-234v79zM307 59h-5q-21 -31 -52 -50.5t-71 -19.5q-60 0 -94 37t-34 119v339h110v-309q0 -46 16 -66t48 -20t53.5 27.5t21.5 67.5v300h110v-484h-92z" />
    <glyph glyph-name="uogonek" unicode="&#x173;" horiz-adv-x="461" 
d="M444 -111v-51q-30 -13 -60 -13q-38 0 -65 20t-27 63q0 29 10.5 50.5t30.5 41.5h-15l-11 59h-5q-21 -31 -52 -50.5t-71 -19.5q-60 0 -94 37t-34 119v339h110v-309q0 -46 16 -66t48 -20t53.5 27.5t21.5 67.5v300h110v-484q-10 -11 -18.5 -28.5t-8.5 -35.5q0 -20 9.5 -33.5
t31.5 -13.5h20z" />
    <glyph glyph-name="uring" unicode="&#x16f;" horiz-adv-x="461" 
d="M293.5 666.5q25.5 -26.5 25.5 -62.5q0 -37 -25.5 -62.5t-62.5 -25.5q-36 0 -62.5 25.5t-26.5 62.5t26 63t63 26t62.5 -26.5zM200.5 634q-12.5 -12 -12.5 -30t12.5 -30t30.5 -12t30.5 12t12.5 30t-12.5 30t-30.5 12t-30.5 -12zM307 59h-5q-21 -31 -52 -50.5t-71 -19.5
q-60 0 -94 37t-34 119v339h110v-309q0 -46 16 -66t48 -20t53.5 27.5t21.5 67.5v300h110v-484h-92z" />
    <glyph glyph-name="utilde" unicode="&#x169;" horiz-adv-x="461" 
d="M362 586.5q-23 -34.5 -68 -34.5q-15 0 -29.5 4.5t-33.5 13.5q-36 17 -58 17q-32 0 -36 -35h-61q0 44 23 78.5t67 34.5q15 0 30 -4.5t34 -13.5q19 -8 32 -12.5t27 -4.5q31 0 35 35h61q0 -44 -23 -78.5zM307 59h-5q-21 -31 -52 -50.5t-71 -19.5q-60 0 -94 37t-34 119v339
h110v-309q0 -46 16 -66t48 -20t53.5 27.5t21.5 67.5v300h110v-484h-92z" />
    <glyph glyph-name="v" unicode="v" horiz-adv-x="419" 
d="M154 0l-150 484h116l62 -208q8 -27 14 -57.5t7 -38.5l9 -49h4q3 16 10 58q1 9 6 36.5t11 50.5l62 208h111l-151 -484h-111z" />
    <glyph glyph-name="w" unicode="w" horiz-adv-x="587" 
d="M310 231q-6 31 -9.5 69t-4.5 50h-6q0 -11 -3.5 -49t-9.5 -69l-47 -232h-111l-118 484h110l46 -199q9 -41 14 -89.5t6 -62.5h3q1 14 6.5 61t14.5 90l40 200h112l40 -201q7 -29 13 -81t8 -69h3q2 16 9 60t15 90l43 201h102l-117 -484h-111z" />
    <glyph glyph-name="wacute" unicode="&#x1e83;" horiz-adv-x="587" 
d="M321 543h-91l79 122h111l1 -4zM358 0l-48 231q-6 31 -9.5 69t-4.5 50h-6q0 -11 -3.5 -49t-9.5 -69l-47 -232h-111l-118 484h110l46 -199q9 -41 14 -89.5t6 -62.5h3q1 14 6.5 61t14.5 90l40 200h112l40 -201q7 -29 13 -81t8 -69h3q2 16 9 60t15 90l43 201h102l-117 -484
h-111z" />
    <glyph glyph-name="wcircumflex" unicode="&#x175;" horiz-adv-x="587" 
d="M294 604l-41 -63h-82l79 124h89l78 -124h-82zM310 231q-6 31 -9.5 69t-4.5 50h-6q0 -11 -3.5 -49t-9.5 -69l-47 -232h-111l-118 484h110l46 -199q9 -41 14 -89.5t6 -62.5h3q1 14 6.5 61t14.5 90l40 200h112l40 -201q7 -29 13 -81t8 -69h3q2 16 9 60t15 90l43 201h102
l-117 -484h-111z" />
    <glyph glyph-name="wdieresis" unicode="&#x1e85;" horiz-adv-x="587" 
d="M167 565v100h92v-100h-92zM329 565v100h91v-100h-91zM358 0l-48 231q-6 31 -9.5 69t-4.5 50h-6q0 -11 -3.5 -49t-9.5 -69l-47 -232h-111l-118 484h110l46 -199q9 -41 14 -89.5t6 -62.5h3q1 14 6.5 61t14.5 90l40 200h112l40 -201q7 -29 13 -81t8 -69h3q2 16 9 60t15 90
l43 201h102l-117 -484h-111z" />
    <glyph glyph-name="wgrave" unicode="&#x1e81;" horiz-adv-x="587" 
d="M265 543l-99 118l1 4h111l79 -122h-92zM358 0l-48 231q-6 31 -9.5 69t-4.5 50h-6q0 -11 -3.5 -49t-9.5 -69l-47 -232h-111l-118 484h110l46 -199q9 -41 14 -89.5t6 -62.5h3q1 14 6.5 61t14.5 90l40 200h112l40 -201q7 -29 13 -81t8 -69h3q2 16 9 60t15 90l43 201h102
l-117 -484h-111z" />
    <glyph glyph-name="x" unicode="x" horiz-adv-x="419" 
d="M415 0h-125l-81 160h-5l-81 -160h-119l141 250l-129 234h124l72 -141h5l72 141h119l-131 -231z" />
    <glyph glyph-name="y" unicode="y" horiz-adv-x="419" 
d="M217.5 -115.5q-40.5 -51.5 -105.5 -51.5q-28 0 -49.5 3.5t-21.5 4.5v84h49q26 0 45.5 18.5t28.5 56.5l-160 484h117l72 -227q11 -35 18 -87l7 -39h5l6 39q8 58 16 86l60 228h111l-133 -459q-25 -89 -65.5 -140.5z" />
    <glyph glyph-name="yacute" unicode="&#xfd;" horiz-adv-x="419" 
d="M237 543h-90l79 122h110l1 -4zM217.5 -115.5q-40.5 -51.5 -105.5 -51.5q-28 0 -49.5 3.5t-21.5 4.5v84h49q26 0 45.5 18.5t28.5 56.5l-160 484h117l72 -227q11 -35 18 -87l7 -39h5l6 39q8 58 16 86l60 228h111l-133 -459q-25 -89 -65.5 -140.5z" />
    <glyph glyph-name="ycircumflex" unicode="&#x177;" horiz-adv-x="419" 
d="M210 604l-40 -63h-84l79 124h91l78 -124h-83zM217.5 -115.5q-40.5 -51.5 -105.5 -51.5q-28 0 -49.5 3.5t-21.5 4.5v84h49q26 0 45.5 18.5t28.5 56.5l-160 484h117l72 -227q11 -35 18 -87l7 -39h5l6 39q8 58 16 86l60 228h111l-133 -459q-25 -89 -65.5 -140.5z" />
    <glyph glyph-name="ydieresis" unicode="&#xff;" horiz-adv-x="419" 
d="M83 565v100h93v-100h-93zM244 565v100h93v-100h-93zM217.5 -115.5q-40.5 -51.5 -105.5 -51.5q-28 0 -49.5 3.5t-21.5 4.5v84h49q26 0 45.5 18.5t28.5 56.5l-160 484h117l72 -227q11 -35 18 -87l7 -39h5l6 39q8 58 16 86l60 228h111l-133 -459q-25 -89 -65.5 -140.5z" />
    <glyph glyph-name="ygrave" unicode="&#x1ef3;" horiz-adv-x="419" 
d="M182 543l-99 118v4h111l80 -122h-92zM217.5 -115.5q-40.5 -51.5 -105.5 -51.5q-28 0 -49.5 3.5t-21.5 4.5v84h49q26 0 45.5 18.5t28.5 56.5l-160 484h117l72 -227q11 -35 18 -87l7 -39h5l6 39q8 58 16 86l60 228h111l-133 -459q-25 -89 -65.5 -140.5z" />
    <glyph glyph-name="z" unicode="z" horiz-adv-x="376" 
d="M361 93v-93h-344v47l187 344h-176v93h326v-46l-189 -345h196z" />
    <glyph glyph-name="zacute" unicode="&#x17a;" horiz-adv-x="376" 
d="M216 543h-91l79 122h110l1 -4zM165 93h196v-93h-344v47l187 344h-176v93h326v-46z" />
    <glyph glyph-name="zcaron" unicode="&#x17e;" horiz-adv-x="376" 
d="M66 665h82l41 -64l41 64h83l-79 -124h-89zM361 93v-93h-344v47l187 344h-176v93h326v-46l-189 -345h196z" />
    <glyph glyph-name="zdotaccent" unicode="&#x17c;" horiz-adv-x="376" 
d="M139 665h99v-107h-99v107zM361 93v-93h-344v47l187 344h-176v93h326v-46l-189 -345h196z" />
    <glyph glyph-name="ordfeminine" unicode="&#xaa;" horiz-adv-x="279" 
d="M222 650q28 -25 28 -72v-156q0 -11 5 -16.5t12 -5.5h15v-57q-18 -9 -44 -9q-21 0 -36.5 11.5t-20.5 30.5h-3q-16 -21 -34.5 -31.5t-48.5 -10.5q-31 0 -57 20t-26 71q0 62 41.5 88.5t117.5 26.5v34q0 17 -6.5 26.5t-24.5 9.5t-26 -8.5t-8 -21.5v-9h-77q-1 3 -1 12
q0 42 30 67t80 25q56 0 84 -25zM115 473.5q-22 -12.5 -22 -41.5q0 -33 33 -33q23 0 34 19.5t11 48.5v19q-34 0 -56 -12.5z" />
    <glyph glyph-name="ordmasculine" unicode="&#xba;" horiz-adv-x="275" 
d="M238 633.5q32 -41.5 32 -130.5q0 -87 -32.5 -128.5t-98.5 -41.5t-98 41.5t-32 128.5q0 89 32 130.5t98 41.5q67 0 99 -41.5zM103 584.5q-11 -22.5 -11 -68.5v-24q0 -47 11 -69.5t36 -22.5q27 0 38 22.5t11 69.5v24q0 46 -11 68.5t-38 22.5q-25 0 -36 -22.5z" />
    <glyph glyph-name="uni207F" unicode="&#x207f;" horiz-adv-x="298" 
d="M270 570v-228h-79v208q0 29 -9 41.5t-28 12.5q-20 0 -33.5 -17.5t-13.5 -43.5v-201h-79v326h67l7 -40h4q30 47 78 47q86 0 86 -105z" />
    <glyph glyph-name="Delta" unicode="&#x394;" horiz-adv-x="542" 
d="M522 0h-511v51l188 579h137l186 -579v-51zM141 105h245l-121 392h-3z" />
    <glyph glyph-name="Omega" unicode="&#x3a9;" horiz-adv-x="706" 
d="M546 560.5q68 -81.5 68 -245.5q0 -74 -24.5 -130.5t-67.5 -92.5l35 7q28 6 34 6h23v-105h-227v75q53 13 79.5 64t26.5 133v66q0 96 -35.5 149.5t-104.5 53.5q-70 0 -106.5 -53.5t-36.5 -149.5v-66q0 -80 27.5 -131t79.5 -66v-75h-227v105h23q6 0 32 -6l36 -7
q-43 36 -67 92t-24 131q0 164 68.5 245.5t194.5 81.5q125 0 193 -81.5z" />
    <glyph glyph-name="mu" unicode="&#x3bc;" horiz-adv-x="461" 
d="M307 59h-5q-17 -31 -43.5 -50.5t-60.5 -19.5q-18 0 -37 7v-155h-110v643h110v-309q0 -46 16 -66t48 -20t53.5 27.5t21.5 67.5v300h110v-484h-92z" />
    <glyph glyph-name="pi" unicode="&#x3c0;" horiz-adv-x="577" 
d="M450 144q0 -92 13 -144h-109q-14 23 -14 135v256h-101q-5 -97 -22 -218t-38 -173h-109q22 67 39.5 186t19.5 205q-40 0 -61 -3t-39 -9l-10 77q40 28 146 28h370l-8 -93h-77v-247z" />
    <glyph glyph-name="uni0904" unicode="&#x904;" horiz-adv-x="665" 
d="M675 534h-83v-534h-110v227h-115v-30q0 -71 -47 -112t-124 -41t-122 40.5t-45 107.5q0 16 3 32h113v-23q0 -32 14 -48.5t40 -16.5q52 0 53 61v34q0 71 -64 71h-30v91h31q24 0 38.5 16t15.5 48v31q0 62 -44 62q-45 0 -45 -65v-19h-111q-3 18 -3 36q0 64 44 102t115 38
q73 0 116 -40.5t43 -113.5v-31q0 -70 -54 -103v-4q20 -9 35 -27h143v211h-85v96h86v58q0 14 -7.5 20t-22.5 6h-217q-73 0 -106 29.5t-33 93.5v23h110v-23q0 -14 6.5 -20.5t22.5 -6.5h217q74 0 107 -29t33 -93v-58h82v-96z" />
    <glyph glyph-name="uni0972" unicode="&#x972;" horiz-adv-x="665" 
d="M29 0zM675 534h-83v-534h-110v227h-115v-30q0 -71 -47 -112t-124 -41t-122 40.5t-45 107.5q0 16 3 32h113v-23q0 -32 14 -48.5t40 -16.5q52 0 53 61v34q0 71 -64 71h-30v91h31q24 0 38.5 16t15.5 48v31q0 62 -44 62q-45 0 -45 -65v-19h-111q-3 18 -3 36q0 64 44 102
t115 38q73 0 116 -40.5t43 -113.5v-31q0 -70 -54 -103v-4q20 -9 35 -27h143v211h-85v96h278v-96zM454 705q-45 -46 -122 -46q-76 0 -120.5 46t-44.5 120h95q0 -44 19 -65.5t51 -21.5q71 0 71 87h96q0 -74 -45 -120z" />
    <glyph glyph-name="uni0905" unicode="&#x905;" horiz-adv-x="665" 
d="M675 534h-83v-534h-110v227h-115v-30q0 -71 -47 -112t-124 -41t-122 40.5t-45 107.5q0 16 3 32h113v-23q0 -32 14 -48.5t40 -16.5q52 0 53 61v34q0 71 -64 71h-30v91h31q24 0 38.5 16t15.5 48v31q0 62 -44 62q-45 0 -45 -65v-19h-111q-3 18 -3 36q0 64 44 102t115 38
q73 0 116 -40.5t43 -113.5v-31q0 -70 -54 -103v-4q20 -9 35 -27h143v211h-85v96h278v-96z" />
    <glyph glyph-name="uni0906" unicode="&#x906;" horiz-adv-x="933" 
d="M944 534h-90v-534h-110v534h-152v-534h-110v227h-115v-30q0 -71 -47 -112t-124 -41t-122 40.5t-45 107.5q0 16 3 32h113v-23q0 -32 14 -48.5t40 -16.5q52 0 53 61v34q0 71 -64 71h-30v91h31q24 0 38.5 16t15.5 48v31q0 62 -44 62q-45 0 -45 -65v-19h-111q-3 18 -3 36
q0 64 44 102t115 38q73 0 116 -40.5t43 -113.5v-31q0 -70 -54 -103v-4q20 -9 35 -27h143v211h-85v96h547v-96z" />
    <glyph glyph-name="uni0907" unicode="&#x907;" horiz-adv-x="485" 
d="M185 345q0 -17 15 -24.5t48 -7.5h35q79 0 122.5 -32.5t43.5 -107.5q0 -77 -44.5 -113.5t-120.5 -36.5q-60 0 -102 22v-94h-101v237h121v-7q0 -33 20 -50.5t54 -17.5q30 0 45.5 14t15.5 40q0 31 -19 40t-57 9h-10q-178 0 -178 130q0 66 42 96t115 30h67v62h-307v96h505
v-96h-87v-159h-181q-42 0 -42 -30z" />
    <glyph glyph-name="uni0908" unicode="&#x908;" horiz-adv-x="485" 
d="M185 345q0 -17 15 -24.5t48 -7.5h35q79 0 122.5 -32.5t43.5 -107.5q0 -77 -44.5 -113.5t-120.5 -36.5q-60 0 -102 22v-94h-101v237h121v-7q0 -33 20 -50.5t54 -17.5q30 0 45.5 14t15.5 40q0 31 -19 40t-57 9h-10q-178 0 -178 130q0 66 42 96t115 30h67v62h-307v96h301
q-25 51 -25 96q0 61 50.5 97.5t134.5 36.5h30v-97h-12q-45 0 -68.5 -17t-23.5 -49q0 -34 18 -67h100v-96h-87v-159h-181q-42 0 -42 -30z" />
    <glyph glyph-name="uni09080902" horiz-adv-x="485" 
d="M495 630v-96h-87v-159h-181q-42 0 -42 -30q0 -17 15 -24.5t48 -7.5h35q79 0 122.5 -32.5t43.5 -107.5q0 -77 -44.5 -113.5t-120.5 -36.5q-60 0 -102 22v-94h-101v237h121v-7q0 -33 20 -50.5t54 -17.5q30 0 45.5 14t15.5 40q0 31 -19 40t-57 9h-10q-178 0 -178 130
q0 66 42 96t115 30h67v62h-307v96h301q-25 51 -25 96q0 61 50.5 97.5t134.5 36.5h30v-81h-12q-45 0 -68.5 -19t-23.5 -53q0 -37 20 -77h98zM536 754v-94h-94v94h94z" />
    <glyph glyph-name="uni0909" unicode="&#x909;" horiz-adv-x="386" 
d="M396 534h-69q10 -30 10 -63v-14q0 -70 -54 -103v-4q28 -13 45.5 -43.5t17.5 -75.5v-34q0 -71 -46.5 -112t-124.5 -41q-77 0 -122 40.5t-45 107.5q0 16 3 32h113v-23q0 -31 14 -48t40 -17q52 0 53 61v34q0 71 -64 71h-30v91h31q25 0 39.5 16t15.5 48v14q0 63 -45 63h-188
v96h406v-96z" />
    <glyph glyph-name="uni090A" unicode="&#x90a;" horiz-adv-x="629" 
d="M327 534q10 -30 10 -63v-14q0 -70 -54 -103v-4q15 -7 29 -21q40 60 123 60q79 0 126.5 -46.5t47.5 -127.5q0 -86 -48 -128.5t-129 -42.5q-6 0 -20 2v99h9q36 0 57 18.5t21 49.5v9q0 30 -18 48t-49 18q-46 0 -66 -24.5t-20 -72.5q-2 -68 -48.5 -107.5t-122.5 -39.5
q-77 0 -122 40.5t-45 107.5q0 16 3 32h113v-23q0 -31 14 -48t40 -17q52 0 53 61v34q0 71 -64 71h-30v91h31q25 0 39.5 16t15.5 48v14q0 63 -45 63h-188v96h650v-96h-313z" />
    <glyph glyph-name="uni090B" unicode="&#x90b;" horiz-adv-x="766" 
d="M416 318l180 87v42h102v-275h-21q-26 0 -41 -11.5t-15 -32.5t15 -32t41 -11q33 0 67 14v-94q-36 -16 -75 -16q-42 0 -78 16.5t-58 48t-22 74.5q0 45 23 77t62 49v44l-180 -87v-211h-110v165l-201 -96v107l179 86l-25 27q-27 29 -50 41t-47 12q-18 0 -51 -10l-30 -10v95
q5 3 34 14q31 9 58 9q41 0 70.5 -16t62.5 -49v159h-316v96h787v-96h-361v-216z" />
    <glyph glyph-name="uni0960" unicode="&#x960;" horiz-adv-x="766" 
d="M416 318l180 87v42h102v-275h-28q-49 0 -49 -36q0 -18 15 -27t41 -9h21v-90h-28q-23 0 -36 -9.5t-13 -27.5t15 -26.5t41 -8.5q35 0 67 15v-95q-40 -16 -75 -16q-41 0 -77.5 15t-58.5 42.5t-22 64.5q0 52 42 91q-42 37 -42 90q0 38 23 66.5t62 43.5v43l-180 -87v-211h-110
v165l-201 -96v107l179 86l-25 27q-27 29 -50 41t-47 12q-18 0 -51 -10l-30 -10v95q5 3 34 14q31 9 58 9q41 0 70.5 -16t62.5 -49v159h-316v96h787v-96h-361v-216z" />
    <glyph glyph-name="uni090C" unicode="&#x90c;" horiz-adv-x="672" 
d="M531 57.5q-15 -11.5 -15 -32.5t15 -32t41 -11q33 0 67 14v-94q-36 -16 -75 -16q-42 0 -78 16.5t-58 48t-22 74.5t21 74t56 48v132q0 43 -14 67t-41 24q-56 0 -56 -98v-72h-115v72q0 98 -56 98q-27 0 -40.5 -35.5t-13.5 -96.5q0 -72 28 -108.5t82 -36.5h34v-89
q-15 -4 -35 -4q-109 0 -166.5 63.5t-57.5 185.5q0 61 18.5 109.5t53 76.5t80.5 28q50 0 83 -25.5t46 -68.5h3q13 43 42.5 68.5t76.5 25.5q25 0 48 -10v81h-493v96h692v-96h-89v-465h-21q-26 0 -41 -11.5z" />
    <glyph glyph-name="uni0961" unicode="&#x961;" horiz-adv-x="672" 
d="M516 64q0 -18 15 -27t41 -9h21v-90h-28q-23 0 -36 -9.5t-13 -27.5t15 -26.5t41 -8.5q35 0 67 15v-95q-40 -16 -75 -16q-41 0 -77.5 15t-58.5 42.5t-22 64.5q0 52 42 91q-42 37 -42 90q0 36 21 63.5t56 42.5v100q0 43 -14 67t-41 24q-56 0 -56 -98v-55h-115v55
q0 98 -56 98q-27 0 -40.5 -35.5t-13.5 -96.5q0 -72 28 -108.5t82 -36.5h34v-89q-15 -4 -35 -4q-109 0 -166.5 63.5t-57.5 185.5q0 61 18.5 109.5t53 76.5t80.5 28q50 0 83 -25.5t46 -68.5h3q13 43 42.5 68.5t76.5 25.5q25 0 48 -10v81h-493v96h692v-96h-89v-434h-28
q-49 0 -49 -36z" />
    <glyph glyph-name="uni090D" unicode="&#x90d;" horiz-adv-x="537" 
d="M0 0zM547 534h-89v-142q0 -56 -26 -93t-87 -37q-34 0 -60 7v86h20q42 0 42 44v135h-158v-228q0 -17 3 -28t12 -18l150 -148q33 -30 48 -53.5t15 -43.5q0 -27 -17 -64h-92q2 13 2 31q0 19 -6 32.5t-20 29.5l-169 165q-19 18 -27.5 38.5t-8.5 50.5v236h-89v96h557v-96z
M389 705q-45 -46 -122 -46q-76 0 -120.5 46t-44.5 120h95q0 -44 19 -65.5t51 -21.5q71 0 71 87h96q0 -74 -45 -120z" />
    <glyph glyph-name="uni090E" unicode="&#x90e;" horiz-adv-x="537" 
d="M0 0zM547 534h-89v-142q0 -56 -26 -93t-87 -37q-34 0 -60 7v86h20q42 0 42 44v135h-158v-228q0 -17 3 -28t12 -18l150 -148q33 -30 48 -53.5t15 -43.5q0 -27 -17 -64h-92q2 13 2 31q0 19 -6 32.5t-20 29.5l-169 165q-19 18 -27.5 38.5t-8.5 50.5v236h-89v96h557v-96z
M350 596v92q0 14 -7.5 20t-22.5 6h-217q-73 0 -106 29.5t-33 93.5v23h110v-23q0 -14 6.5 -20.5t22.5 -6.5h217q74 0 107 -29t33 -93v-92h-110z" />
    <glyph glyph-name="uni090F" unicode="&#x90f;" horiz-adv-x="537" 
d="M547 534h-89v-142q0 -56 -26 -93t-87 -37q-34 0 -60 7v86h20q42 0 42 44v135h-158v-228q0 -17 3 -28t12 -18l150 -148q33 -30 48 -53.5t15 -43.5q0 -27 -17 -64h-92q2 13 2 31q0 19 -6 32.5t-20 29.5l-169 165q-19 18 -27.5 38.5t-8.5 50.5v236h-89v96h557v-96z" />
    <glyph glyph-name="uni0910" unicode="&#x910;" horiz-adv-x="537" 
d="M547 534h-89v-142q0 -56 -26 -93t-87 -37q-34 0 -60 7v86h20q42 0 42 44v135h-158v-228q0 -17 3 -28t12 -18l150 -148q33 -30 48 -53.5t15 -43.5q0 -27 -17 -64h-92q2 13 2 31q0 19 -6 32.5t-20 29.5l-169 165q-19 18 -27.5 38.5t-8.5 50.5v236h-89v96h356l-86 276h112
l75 -276h100v-96z" />
    <glyph glyph-name="uni0911" unicode="&#x911;" horiz-adv-x="933" 
d="M29 0zM944 534h-90v-534h-110v534h-152v-534h-110v227h-115v-30q0 -71 -47 -112t-124 -41t-122 40.5t-45 107.5q0 16 3 32h113v-23q0 -32 14 -48.5t40 -16.5q52 0 53 61v34q0 71 -64 71h-30v91h31q24 0 38.5 16t15.5 48v31q0 62 -44 62q-45 0 -45 -65v-19h-111
q-3 18 -3 36q0 64 44 102t115 38q73 0 116 -40.5t43 -113.5v-31q0 -70 -54 -103v-4q20 -9 35 -27h143v211h-85v96h547v-96zM588 705q-45 -46 -122 -46q-76 0 -120.5 46t-44.5 120h95q0 -44 19 -65.5t51 -21.5q71 0 71 87h96q0 -74 -45 -120z" />
    <glyph glyph-name="uni0912" unicode="&#x912;" horiz-adv-x="933" 
d="M944 534h-90v-534h-110v534h-152v-534h-110v227h-115v-30q0 -71 -47 -112t-124 -41t-122 40.5t-45 107.5q0 16 3 32h113v-23q0 -32 14 -48.5t40 -16.5q52 0 53 61v34q0 71 -64 71h-30v91h31q24 0 38.5 16t15.5 48v31q0 62 -44 62q-45 0 -45 -65v-19h-111q-3 18 -3 36
q0 64 44 102t115 38q73 0 116 -40.5t43 -113.5v-31q0 -70 -54 -103v-4q20 -9 35 -27h143v211h-85v96h348v58q0 14 -7.5 20t-22.5 6h-217q-73 0 -106 29.5t-33 93.5v23h110v-23q0 -14 6.5 -20.5t22.5 -6.5h217q74 0 107 -29t33 -93v-58h89v-96z" />
    <glyph glyph-name="uni0913" unicode="&#x913;" horiz-adv-x="933" 
d="M944 534h-90v-534h-110v534h-152v-534h-110v227h-115v-30q0 -71 -47 -112t-124 -41t-122 40.5t-45 107.5q0 16 3 32h113v-23q0 -32 14 -48.5t40 -16.5q52 0 53 61v34q0 71 -64 71h-30v91h31q24 0 38.5 16t15.5 48v31q0 62 -44 62q-45 0 -45 -65v-19h-111q-3 18 -3 36
q0 64 44 102t115 38q73 0 116 -40.5t43 -113.5v-31q0 -70 -54 -103v-4q20 -9 35 -27h143v211h-85v96h344l-86 276h112l75 -276h102v-96z" />
    <glyph glyph-name="uni0914" unicode="&#x914;" horiz-adv-x="933" 
d="M944 534h-90v-534h-110v534h-152v-534h-110v227h-115v-30q0 -71 -47 -112t-124 -41t-122 40.5t-45 107.5q0 16 3 32h113v-23q0 -32 14 -48.5t40 -16.5q52 0 53 61v34q0 71 -64 71h-30v91h31q24 0 38.5 16t15.5 48v31q0 62 -44 62q-45 0 -45 -65v-19h-111q-3 18 -3 36
q0 64 44 102t115 38q73 0 116 -40.5t43 -113.5v-31q0 -70 -54 -103v-4q20 -9 35 -27h143v211h-85v96h231l-85 276h111l77 -276h18q-9 86 -9 143v133h111v-276h93v-96z" />
    <glyph glyph-name="uni0973" unicode="&#x973;" horiz-adv-x="665" 
d="M29 0zM675 534h-83v-534h-110v227h-115v-30q0 -71 -47 -112t-124 -41t-122 40.5t-45 107.5q0 16 3 32h113v-23q0 -32 14 -48.5t40 -16.5q52 0 53 61v34q0 71 -64 71h-30v91h31q24 0 38.5 16t15.5 48v31q0 62 -44 62q-45 0 -45 -65v-19h-111q-3 18 -3 36q0 64 44 102
t115 38q73 0 116 -40.5t43 -113.5v-31q0 -70 -54 -103v-4q20 -9 35 -27h143v211h-85v96h278v-96zM592 694h-110v179h110v-179z" />
    <glyph glyph-name="uni0974" unicode="&#x974;" horiz-adv-x="933" 
d="M29 0zM944 534h-90v-534h-110v534h-152v-534h-110v227h-115v-30q0 -71 -47 -112t-124 -41t-122 40.5t-45 107.5q0 16 3 32h113v-23q0 -32 14 -48.5t40 -16.5q52 0 53 61v34q0 71 -64 71h-30v91h31q24 0 38.5 16t15.5 48v31q0 62 -44 62q-45 0 -45 -65v-19h-111
q-3 18 -3 36q0 64 44 102t115 38q73 0 116 -40.5t43 -113.5v-31q0 -70 -54 -103v-4q20 -9 35 -27h143v211h-85v96h547v-96zM858 694h-110v179h110v-179z" />
    <glyph glyph-name="uni0975" unicode="&#x975;" horiz-adv-x="933" 
d="M944 534h-90v-534h-110v534h-152v-534h-110v227h-115v-30q0 -71 -47 -112t-124 -41t-122 40.5t-45 107.5q0 16 3 32h113v-23q0 -32 14 -48.5t40 -16.5q52 0 53 61v34q0 71 -64 71h-30v91h31q24 0 38.5 16t15.5 48v31q0 62 -44 62q-45 0 -45 -65v-19h-111q-3 18 -3 36
q0 64 44 102t115 38q73 0 116 -40.5t43 -113.5v-31q0 -70 -54 -103v-4q20 -9 35 -27h143v211h-85v96h279v3q0 14 -7 20t-23 6h-175q-79 0 -114.5 29t-35.5 94v23h110v-23q0 -20 9 -28.5t31 -8.5h175q74 0 107.5 -26.5t33.5 -85.5v-3h9q9 93 9 102q0 43 -36 43h-165
q-79 0 -114.5 26.5t-35.5 85.5v23h110v-23q0 -14 9.5 -20.5t30.5 -6.5h165q77 0 112 -29.5t35 -94.5q0 -15 -9 -106h37v-96z" />
    <glyph glyph-name="uni0976" unicode="&#x976;" horiz-adv-x="665" 
d="M29 0zM675 534h-83v-534h-110v227h-115v-30q0 -71 -47 -112t-124 -41t-122 40.5t-45 107.5q0 16 3 32h113v-23q0 -32 14 -48.5t40 -16.5q52 0 53 61v34q0 71 -64 71h-30v91h31q24 0 38.5 16t15.5 48v31q0 62 -44 62q-45 0 -45 -65v-19h-111q-3 18 -3 36q0 64 44 102
t115 38q73 0 116 -40.5t43 -113.5v-31q0 -70 -54 -103v-4q20 -9 35 -27h143v211h-85v96h278v-96zM502 -93q-23 -30 -64.5 -48.5t-97.5 -18.5t-97 18.5t-64.5 48t-27.5 62.5h88q8 -20 34.5 -35.5t66.5 -15.5q38 0 65.5 15.5t34.5 35.5h89q-4 -32 -27 -62z" />
    <glyph glyph-name="uni0977" unicode="&#x977;" horiz-adv-x="665" 
d="M29 0zM675 534h-83v-534h-110v227h-115v-30q0 -71 -47 -112t-124 -41t-122 40.5t-45 107.5q0 16 3 32h113v-23q0 -32 14 -48.5t40 -16.5q52 0 53 61v34q0 71 -64 71h-30v91h31q24 0 38.5 16t15.5 48v31q0 62 -44 62q-45 0 -45 -65v-19h-111q-3 18 -3 36q0 64 44 102
t115 38q73 0 116 -40.5t43 -113.5v-31q0 -70 -54 -103v-4q20 -9 35 -27h143v211h-85v96h278v-96zM529 -31zM502 -93q-23 -30 -64.5 -48.5t-97.5 -18.5t-97 18.5t-64.5 48t-27.5 62.5h88q8 -20 34.5 -35.5t66.5 -15.5q38 0 65.5 15.5t34.5 35.5h89q-4 -32 -27 -62zM502 -228
q-23 -30 -64.5 -48.5t-97.5 -18.5t-97 18.5t-64.5 48t-27.5 62.5h88q8 -20 34.5 -35.5t66.5 -15.5q38 0 65.5 15.5t34.5 35.5h89q-4 -32 -27 -62z" />
    <glyph glyph-name="uni093E" unicode="&#x93e;" 
d="M279 534h-90v-534h-110v534h-89v96h289v-96z" />
    <glyph glyph-name="uni093F" unicode="&#x93f;" 
d="M628.5 839.5q47.5 -40.5 47.5 -97.5q0 -32 -1 -42h-106v35q0 24 -20.5 44t-66.5 30q-40 7 -88 7h-18q-58 0 -96 -7q-54 -10 -72.5 -32.5t-18.5 -57.5v-89h90v-96h-90v-534h-110v534h-89v96h89v95q0 66 43.5 109.5t133.5 59.5q54 12 130 12q62 0 111 -10
q84 -16 131.5 -56.5z" />
    <glyph glyph-name="iMatra_basedeva" 
d="M620.5 839.5q44.5 -40.5 44.5 -97.5l-95 -16q0 27 -20.5 49t-67.5 34q-40 7 -88 7h-18q-58 0 -96 -7q-54 -10 -72.5 -32.5t-18.5 -57.5v-89h90v-96h-90v-534h-110v534h-89v96h89v95q0 66 43.5 109.5t133.5 59.5q54 12 130 12q62 0 111 -10q79 -16 123.5 -56.5z" />
    <glyph glyph-name="uni093F0901" 
d="M804 828h-107v107h107v-107zM930 848q0 -75 -47 -120.5t-131 -45.5q-51 0 -89 18h-94v35q0 24 -20.5 44t-66.5 30q-40 7 -88 7h-18q-58 0 -96 -7q-54 -10 -72.5 -32.5t-18.5 -57.5v-89h90v-96h-90v-534h-110v534h-89v96h89v95q0 66 43.5 109.5t133.5 59.5q54 12 130 12
q62 0 111 -10q74 -13 121 -48h40q0 -52 22 -75.5t72 -23.5t72.5 23.5t22.5 75.5h83z" />
    <glyph glyph-name="uni093F0902" 
d="M0 0zM628.5 839.5q47.5 -40.5 47.5 -97.5q0 -32 -1 -42h-106v35q0 24 -20.5 44t-66.5 30q-40 7 -88 7h-18q-58 0 -96 -7q-54 -10 -72.5 -32.5t-18.5 -57.5v-89h90v-96h-90v-534h-110v534h-89v96h89v95q0 66 43.5 109.5t133.5 59.5q54 12 130 12q62 0 111 -10
q84 -16 131.5 -56.5zM714 906h126v-126h-126v126z" />
    <glyph glyph-name="uni093F0930094D" 
d="M768 860v-97h-11q-46 0 -69.5 -17t-23.5 -49q0 -16 5 -38h-89q-11 38 -11 67v10q-3 24 -24 43.5t-63 29.5q-40 7 -88 7h-18q-58 0 -96 -7q-54 -10 -72.5 -32.5t-18.5 -57.5v-89h90v-96h-90v-534h-110v534h-89v96h89v95q0 66 43.5 109.5t133.5 59.5q54 12 130 12
q62 0 111 -10q85 -16 131 -64q45 28 110 28h30z" />
    <glyph glyph-name="uni093F0930094D0901" 
d="M665 745v-3h-1q-1 -7 -1 -21q0 -32 6 -62h-89q-11 38 -11 67v10q-3 24 -24 43.5t-63 29.5q-40 7 -88 7h-18q-58 0 -96 -7q-54 -10 -72.5 -32.5t-18.5 -57.5v-89h90v-96h-90v-534h-110v534h-89v96h89v95q0 66 43.5 109.5t133.5 59.5q54 12 130 12q62 0 111 -10
q76 -15 121 -54q46 39 110 39h19v-83h-22q-51 0 -60 -53zM829 719h-63v63h63v-63zM910 734q0 -44 -26 -67.5t-87 -23.5q-114 0 -114 91h58q0 -25 12 -35.5t44 -10.5q33 0 44 10t11 36h58z" />
    <glyph glyph-name="uni093F0930094D0902" 
d="M678.5 759.5q-15.5 -17.5 -15.5 -49.5q0 -25 6 -51h-89q-11 38 -11 67v10q-3 24 -24 43.5t-63 29.5q-40 7 -88 7h-18q-58 0 -96 -7q-54 -10 -72.5 -32.5t-18.5 -57.5v-89h90v-96h-90v-534h-110v534h-89v96h89v95q0 66 43.5 109.5t133.5 59.5q54 12 130 12q62 0 111 -10
q85 -16 131 -64q45 28 110 28h30v-83h-43q-31 0 -46.5 -17.5zM811 754v-94h-94v94h94z" />
    <glyph glyph-name="uni0940" unicode="&#x940;" 
d="M279 534h-90v-534h-110v534h-89v96h89v99q0 87 -79 87t-79 -81v-35h-107q-1 10 -1 42q0 76 48 120t138 44q91 0 140.5 -45t49.5 -126v-105h90v-96z" />
    <glyph glyph-name="uni09400901" 
d="M158 693l12 -63h109v-96h-90v-534h-110v534h-89v96h75l-19 99q-10 48 -23 67.5t-43 19.5q-59 0 -59 -81v-35h-107q-1 10 -1 42q0 76 42.5 120t121.5 44q62 0 99.5 -28.5t58.5 -85.5q9 -24 29.5 -33.5t55.5 -9.5q50 0 72.5 23.5t22.5 75.5h83q0 -75 -46.5 -120.5
t-128.5 -45.5q-37 0 -65 11zM273 798h-107v107h107v-107z" />
    <glyph glyph-name="uni09400902" 
d="M279 630v-96h-90v-534h-110v534h-89v96h75l-19 99q-10 48 -23 67.5t-43 19.5q-59 0 -59 -81v-35h-107q-1 10 -1 42q0 76 42.5 120t121.5 44q77 0 116.5 -43.5t56.5 -127.5l20 -105h109zM317 906v-126h-126v126h126z" />
    <glyph glyph-name="uni09400930094D" 
d="M159 690l11 -60h109v-96h-90v-534h-110v534h-89v96h75l-19 99q-10 48 -23 67.5t-43 19.5q-59 0 -59 -81v-35h-107q-1 10 -1 42q0 76 42.5 120t121.5 44q59 0 95.5 -25.5t56.5 -74.5q33 54 113 54h46v-97h-48q-40 0 -61 -14.5t-21 -41.5q0 -11 1 -17z" />
    <glyph glyph-name="uni09400930094D0901" 
d="M279 630v-96h-90v-534h-110v534h-89v96h75l-19 99q-10 48 -23 67.5t-43 19.5q-59 0 -59 -81v-35h-107q-1 10 -1 42q0 76 42.5 120t121.5 44q56 0 91.5 -23t56.5 -67q15 36 44.5 55.5t72.5 19.5h49v-83h-40q-93 0 -93 -101q0 -11 1 -17l11 -60h109zM258 782h63v-63h-63v63
zM402 734q0 -44 -26 -67.5t-87 -23.5q-114 0 -114 91h58q0 -25 12 -35.5t44 -10.5q33 0 44 10t11 36h58z" />
    <glyph glyph-name="uni09400930094D0902" 
d="M279 630v-96h-90v-534h-110v534h-89v96h75l-19 99q-10 48 -23 67.5t-43 19.5q-59 0 -59 -81v-35h-107q-1 10 -1 42q0 76 42.5 120t121.5 44q56 0 92.5 -24t56.5 -69q32 68 116 68h49v-83h-40q-46 0 -69.5 -23t-23.5 -68q0 -11 1 -17l11 -60h109zM313 754v-94h-94v94h94z
" />
    <glyph glyph-name="uni0949" unicode="&#x949;" 
d="M0 0zM279 534h-90v-534h-110v534h-89v96h289v-96zM255 705q-45 -46 -122 -46q-76 0 -120.5 46t-44.5 120h95q0 -44 19 -65.5t51 -21.5q71 0 71 87h96q0 -74 -45 -120z" />
    <glyph glyph-name="uni09490902" 
d="M0 0zM279 534h-90v-534h-110v534h-89v96h289v-96zM78 912h107v-107h-107v107zM264 704.5q-47 -45.5 -131 -45.5q-83 0 -129.5 45.5t-46.5 120.5h82q0 -52 22 -75.5t72 -23.5t72.5 23.5t22.5 75.5h83q0 -75 -47 -120.5z" />
    <glyph glyph-name="uni09490930094D" 
d="M279 630v-96h-90v-534h-110v534h-89v96h82q-25 51 -25 96q0 61 50.5 97.5t134.5 36.5h30v-81h-12q-45 0 -68.5 -19t-23.5 -53q0 -37 20 -77h101zM406 734q0 -91 -113 -91q-56 0 -85 23t-29 68h68q0 -19 12.5 -30t33.5 -11t33 11t12 30h68z" />
    <glyph glyph-name="uni09490930094D0902" 
d="M191 630h88v-96h-90v-534h-110v534h-89v96h95q-25 51 -25 96q0 71 50.5 113t134.5 42h30v-81h-12q-45 0 -68.5 -25t-23.5 -68q0 -37 20 -77zM273 782h63v-63h-63v63zM417 734q0 -44 -26 -67.5t-87 -23.5q-114 0 -114 91h58q0 -25 12 -35.5t44 -10.5q33 0 44 10t11 36h58z
" />
    <glyph glyph-name="uni094A" unicode="&#x94a;" 
d="M279 534h-90v-534h-110v534h-89v96h90v58q0 14 -7.5 20t-22.5 6h-217q-73 0 -106 29.5t-33 93.5v23h110v-23q0 -14 6.5 -20.5t22.5 -6.5h217q74 0 107 -29t33 -93v-58h89v-96z" />
    <glyph glyph-name="uni094A0901" 
d="M268 828h-107v107h107v-107zM190 683v-53h89v-96h-90v-534h-110v534h-89v96h90v58q0 14 -7.5 20t-22.5 6h-217q-73 0 -106 29.5t-33 93.5v23h110v-23q0 -14 6.5 -20.5t22.5 -6.5h217h4q-3 18 -3 38h82q0 -52 19.5 -75.5t63.5 -23.5t64 23.5t20 75.5h83q0 -75 -44 -120.5
t-123 -45.5q-18 0 -26 1z" />
    <glyph glyph-name="uni094A0902" 
d="M297 906v-126h-126v126h126zM190 630h89v-96h-90v-534h-110v534h-89v96h90v58q0 14 -7.5 20t-22.5 6h-217q-73 0 -106 29.5t-33 93.5v23h110v-23q0 -14 6.5 -20.5t22.5 -6.5h217q74 0 107 -29t33 -93v-58z" />
    <glyph glyph-name="uni094A0930094D" 
d="M279 534h-90v-534h-110v534h-89v96h81q-19 41 -23 72q-6 12 -29 12h-186q-73 0 -106 29.5t-33 93.5v23h110v-23q0 -14 6.5 -20.5t22.5 -6.5h186q30 0 54 -8q23 28 64 43t94 15h30v-97h-12q-45 0 -68.5 -17t-23.5 -49q0 -34 18 -67h104v-96z" />
    <glyph glyph-name="uni094A0930094D0901" 
d="M279 630v-96h-90v-534h-110v534h-89v96h81q-19 41 -23 72q-6 12 -29 12h-186q-73 0 -106 29.5t-33 93.5v23h110v-23q0 -14 6.5 -20.5t22.5 -6.5h186q27 0 47 -6q23 37 65.5 57t99.5 20h30v-81h-12q-45 0 -68.5 -25t-23.5 -68q0 -37 20 -77h102zM259 782h63v-63h-63v63z
M403 734q0 -44 -26 -67.5t-87 -23.5q-114 0 -114 91h58q0 -25 12 -35.5t44 -10.5q33 0 44 10t11 36h58z" />
    <glyph glyph-name="uni094A0930094D0902" 
d="M279 630v-96h-90v-534h-110v534h-89v96h81q-19 41 -23 72q-6 12 -29 12h-186q-73 0 -106 29.5t-33 93.5v23h110v-23q0 -14 6.5 -20.5t22.5 -6.5h186q30 0 54 -8q23 28 64 43t94 15h30v-81h-12q-45 0 -68.5 -19t-23.5 -53q0 -37 20 -77h102zM316 754v-94h-94v94h94z" />
    <glyph glyph-name="uni094B" unicode="&#x94b;" 
d="M279 534h-90v-534h-110v534h-89v96h86l-86 276h112l75 -276h102v-96z" />
    <glyph glyph-name="uni094B0901" 
d="M355 704.5q-47 -45.5 -131 -45.5q-33 0 -57 7l10 -36h102v-96h-90v-534h-110v534h-89v96h86l-86 276h112l36 -133q18 -47 86 -47q50 0 72.5 23.5t22.5 75.5h83q0 -75 -47 -120.5zM276 775h-107v107h107v-107z" />
    <glyph glyph-name="uni094B0902" 
d="M279 534h-90v-534h-110v534h-89v96h86l-86 276h112l75 -276h102v-96zM295 853v-126h-126v126h126z" />
    <glyph glyph-name="uni094B0930094D" 
d="M279 534h-90v-534h-110v534h-89v96h87l-125 276h111l52 -153q1 52 33 79.5t86 27.5h31v-83h-12q-48 0 -70 -18t-22 -57q0 -28 17 -72h101v-96z" />
    <glyph glyph-name="uni094B0930094D0901" 
d="M279 534h-90v-534h-110v534h-89v96h85l-125 276h111l52 -153q1 66 33.5 102t86.5 36h30v-83h-12q-48 0 -70 -25.5t-22 -80.5q0 -28 17 -72h103v-96zM259 782h63v-63h-63v63zM403 734q0 -44 -26 -67.5t-87 -23.5q-114 0 -114 91h58q0 -25 12 -35.5t44 -10.5q33 0 44 10
t11 36h58z" />
    <glyph glyph-name="uni094B0930094D0902" 
d="M279 534h-90v-534h-110v534h-89v96h87l-125 276h111l52 -153q1 52 33 79.5t86 27.5h31v-83h-12q-48 0 -70 -18t-22 -57q0 -28 17 -72h101v-96zM323 754v-94h-94v94h94z" />
    <glyph glyph-name="uni094C" unicode="&#x94c;" 
d="M279 534h-90v-534h-110v534h-124v96h8l-85 276h111l77 -276h18q-9 86 -9 143v133h111v-276h93v-96z" />
    <glyph glyph-name="uni094C0901" 
d="M354.5 704.5q-46.5 -45.5 -130.5 -45.5q-33 0 -57 7l10 -36h102v-96h-90v-534h-110v534h-133v96h9l-153 276h112l143 -276h18l-85 276h111l36 -132q7 -25 28.5 -36.5t58.5 -11.5q50 0 72 23.5t22 75.5h83q0 -75 -46.5 -120.5zM278 775h-107v107h107v-107z" />
    <glyph glyph-name="uni094C0902" 
d="M279 534h-90v-534h-110v534h-125v96h9l-153 276h112l143 -276h18l-85 276h111l76 -276h94v-96zM305 853v-126h-126v126h126z" />
    <glyph glyph-name="uni094C0930094D" 
d="M308 860v-97h-11q-57 0 -90 -21.5t-33 -60.5q0 -9 1 -14l10 -37h94v-96h-90v-534h-110v534h-125v96h9l-153 276h111l144 -276h18l-86 276h112l43 -157q4 111 126 111h30z" />
    <glyph glyph-name="uni094C0930094D0901" 
d="M279 534h-90v-534h-110v534h-153v96h30l-202 276h111l181 -276h31l-60 93l-81 183h111l52 -153q1 66 33 102t86 36h31v-83h-11q-49 0 -71 -23t-22 -73q0 -31 17 -82h117v-96zM248 782h63v-63h-63v63zM392 734q0 -44 -26 -67.5t-87 -23.5q-114 0 -114 91h58
q0 -25 12 -35.5t44 -10.5q33 0 44 10t11 36h58z" />
    <glyph glyph-name="uni094C0930094D0902" 
d="M279 630v-96h-90v-534h-110v534h-125v96h30l-202 276h111l181 -276h31l-60 93l-81 183h111l52 -153q1 61 33.5 94.5t85.5 33.5h31v-83h-11q-49 0 -71 -23t-22 -73q0 -26 16 -72h90zM326 754v-94h-94v94h94z" />
    <glyph glyph-name="uni094E" unicode="&#x94e;" 
d="M279 534h-90v-534h-110v630h200v-96z" />
    <glyph glyph-name="uni093B" unicode="&#x93b;" 
d="M279 534h-90v-534h-110v534h-89v96h89v179h110v-179h90v-96z" />
    <glyph glyph-name="uni094F" unicode="&#x94f;" 
d="M279 534h-90v-534h-110v534h-89v96h21v3q0 14 -7 20t-23 6h-175q-79 0 -114.5 29t-35.5 94v23h110v-23q0 -20 9 -28.5t31 -8.5h175q74 0 107.5 -26.5t33.5 -85.5v-3h9q9 93 9 102q0 43 -36 43h-165q-79 0 -114.5 26.5t-35.5 85.5v23h110v-23q0 -14 9.5 -20.5t30.5 -6.5
h165q77 0 112 -29.5t35 -94.5q0 -15 -9 -106h37v-96z" />
    <glyph glyph-name="uni0940.0" 
d="M279 534h-90v-534h-110v534h-89v96h89v89q0 31 -14.5 51.5t-57.5 33t-125 12.5h-12q-100 0 -142 -23.5t-42 -57.5v-35h-106q-1 10 -1 42q0 49 36 86t103.5 57.5t157.5 20.5q154 0 233.5 -46t79.5 -135v-95h90v-96z" />
    <glyph glyph-name="uni09400901.0" 
d="M159 687l11 -57h109v-96h-90v-534h-110v534h-89v96h78l-19 89q-8 34 -20 53t-48 31.5t-109 12.5h-12q-95 0 -134.5 -23.5t-39.5 -57.5v-35h-106q-1 10 -1 42q0 49 34.5 86.5t100.5 57.5t156 20q107 0 170.5 -30.5t91.5 -92.5q7 -16 24.5 -25t53.5 -9q51 0 73.5 23
t22.5 76h83q0 -75 -47 -120.5t-131 -45.5q-32 0 -52 5zM263 798h-107v107h107v-107z" />
    <glyph glyph-name="uni09400902.0" 
d="M279 630v-96h-90v-534h-110v534h-89v96h78l-19 89q-8 34 -20 53t-48 31.5t-109 12.5h-12q-95 0 -134.5 -23.5t-39.5 -57.5v-35h-106q-1 10 -1 42q0 49 34.5 86.5t100.5 57.5t156 20q130 0 196 -44t85 -137l19 -95h109zM306 906v-126h-126v126h126z" />
    <glyph glyph-name="uni09400930094D.0" 
d="M161 677l9 -47h109v-96h-90v-534h-110v534h-89v96h78l-19 89q-8 34 -20 53t-48 31.5t-109 12.5h-12q-95 0 -134.5 -23.5t-39.5 -57.5v-35h-106q-1 10 -1 42q0 49 34.5 86.5t100.5 57.5t156 20q101 0 163 -26.5t92 -80.5q15 29 44.5 45t72.5 16h46v-97h-48
q-40 0 -61 -14.5t-21 -41.5q0 -12 3 -30z" />
    <glyph glyph-name="uni09400930094D0901.0" 
d="M279 630v-96h-90v-534h-110v534h-89v96h78l-19 89q-8 34 -20 53t-48 31.5t-109 12.5h-12q-95 0 -134.5 -23.5t-39.5 -57.5v-35h-106q-1 10 -1 42q0 49 34.5 86.5t100.5 57.5t156 20q98 0 159 -25t92 -76q14 41 44.5 63.5t76.5 22.5h49v-83h-40q-93 0 -93 -102q0 -7 2 -27
l10 -49h109zM258 782h63v-63h-63v63zM402 734q0 -44 -26 -67.5t-87 -23.5q-114 0 -114 91h58q0 -25 12 -35.5t44 -10.5q33 0 44 10t11 36h58z" />
    <glyph glyph-name="uni09400930094D0902.0" 
d="M279 630v-96h-90v-534h-110v534h-89v96h78l-19 89q-8 34 -20 53t-48 31.5t-109 12.5h-12q-95 0 -134.5 -23.5t-39.5 -57.5v-35h-106q-1 10 -1 42q0 49 34.5 86.5t100.5 57.5t156 20q100 0 161.5 -25.5t92.5 -79.5q28 69 118 69h49v-83h-40q-93 0 -93 -81q0 -7 2 -27
l10 -49h109zM313 754v-94h-94v94h94z" />
    <glyph glyph-name="uni093F.00" 
d="M532.5 843q40.5 -39 40.5 -101q0 -32 -1 -42h-106v35q0 57 -68 75q-20 6 -58 6h-20q-33 0 -60 -5q-36 -8 -53.5 -29.5t-17.5 -62.5v-89h90v-96h-90v-534h-110v534h-89v96h89v95q0 72 40.5 114.5t112.5 56.5q41 10 95 10q52 0 92 -8q73 -16 113.5 -55z" />
    <glyph glyph-name="uni093F0901.00" 
d="M701 828h-107v107h107v-107zM827 848q0 -75 -47 -120.5t-131 -45.5q-52 0 -89 18h-94v35q0 57 -68 75q-20 6 -58 6h-20q-33 0 -60 -5q-36 -8 -53.5 -29.5t-17.5 -62.5v-89h90v-96h-90v-534h-110v534h-89v96h89v95q0 72 40.5 114.5t112.5 56.5q41 10 95 10q52 0 92 -8
q70 -16 108 -50h28q0 -25 5 -45q3 -5 4 -9t2 -6q10 -20 30.5 -29.5t52.5 -9.5q50 0 72.5 23.5t22.5 75.5h83z" />
    <glyph glyph-name="uni093F0902.00" 
d="M0 0zM532.5 843q40.5 -39 40.5 -101q0 -32 -1 -42h-106v35q0 57 -68 75q-20 6 -58 6h-20q-33 0 -60 -5q-36 -8 -53.5 -29.5t-17.5 -62.5v-89h90v-96h-90v-534h-110v534h-89v96h89v95q0 72 40.5 114.5t112.5 56.5q41 10 95 10q52 0 92 -8q73 -16 113.5 -55zM611 906h126
v-126h-126v126z" />
    <glyph glyph-name="uni093F0930094D.00" 
d="M664 860v-97h-11q-46 0 -69.5 -17t-23.5 -49q0 -16 5 -38h-89q-11 38 -11 67q0 9 1 13q-6 53 -68 71q-20 6 -58 6h-20q-33 0 -60 -5q-36 -8 -53.5 -29.5t-17.5 -62.5v-89h90v-96h-90v-534h-110v534h-89v96h89v95q0 72 40.5 114.5t112.5 56.5q41 10 95 10q52 0 92 -8
q75 -19 112 -62q45 24 103 24h30z" />
    <glyph glyph-name="uni093F0930094D0901.00" 
d="M563 753v-11h-3q-1 -7 -1 -21q0 -32 6 -62h-89q-11 38 -11 67q0 9 1 14q-6 52 -68 70q-20 6 -58 6h-20q-33 0 -60 -5q-36 -8 -53.5 -29.5t-17.5 -62.5v-89h90v-96h-90v-534h-110v534h-89v96h89v95q0 72 40.5 114.5t112.5 56.5q41 10 95 10q52 0 92 -8q64 -16 101 -51
q45 34 104 34h19v-83h-22q-47 0 -58 -45zM725 719h-63v63h63v-63zM806 734q0 -44 -26 -67.5t-87 -23.5q-114 0 -114 91h58q0 -25 12 -35.5t44 -10.5q33 0 44 10t11 36h58z" />
    <glyph glyph-name="uni093F0930094D0902.00" 
d="M574.5 759.5q-15.5 -17.5 -15.5 -49.5q0 -25 6 -51h-89q-11 38 -11 67q0 9 1 13q-6 53 -68 71q-20 6 -58 6h-20q-33 0 -60 -5q-36 -8 -53.5 -29.5t-17.5 -62.5v-89h90v-96h-90v-534h-110v534h-89v96h89v95q0 72 40.5 114.5t112.5 56.5q41 10 95 10q52 0 92 -8
q75 -19 112 -62q45 24 103 24h30v-83h-43q-31 0 -46.5 -17.5zM707 754v-94h-94v94h94z" />
    <glyph glyph-name="uni093F.01" 
d="M673 838.5q47 -40.5 47 -97.5q0 -31 -1 -41h-106v35q0 24 -20.5 43.5t-67.5 29.5q-42 8 -108 8h-19q-78 0 -120 -9q-52 -10 -70.5 -32.5t-18.5 -58.5v-86h90v-96h-90v-534h-110v534h-89v96h89v93q0 66 44 109.5t134 60.5q65 13 151 13q71 0 131 -10q87 -17 134 -57.5z
" />
    <glyph glyph-name="uni093F.02" 
d="M717.5 837.5q47.5 -40.5 47.5 -96.5q0 -31 -1 -41h-107v34q0 24 -20.5 43.5t-67.5 29.5q-52 9 -129 9h-21q-89 0 -139 -10q-53 -10 -72 -33t-19 -59v-84h90v-96h-90v-534h-110v534h-89v96h89v90q0 138 180 173q68 13 171 13q91 0 152 -11q88 -17 135.5 -57.5z" />
    <glyph glyph-name="uni093F.03" 
d="M762 837q47 -40 47 -97q0 -30 -1 -40h-106v33q0 24 -21 43.5t-69 29.5q-52 10 -150 10h-22q-108 0 -158 -11q-54 -10 -73.5 -33t-19.5 -60v-82h90v-96h-90v-534h-110v534h-89v96h89v88q0 67 44.5 111.5t136.5 62.5q70 14 193 14q109 0 173 -12q89 -17 136 -57z" />
    <glyph glyph-name="uni093F.04" 
d="M806 836q47 -40 47 -96q0 -30 -1 -40h-106v33q0 23 -21 42.5t-69 29.5q-55 11 -171 11h-24q-117 0 -177 -12q-55 -10 -75 -34t-20 -61v-79h90v-96h-90v-534h-110v534h-89v96h89v86q0 140 183 175q80 15 213 15q128 0 194 -13q90 -17 137 -57z" />
    <glyph glyph-name="uni093F.05" 
d="M851 834.5q47 -39.5 47 -94.5q0 -30 -2 -40h-106v32q0 53 -91 72q-63 12 -191 12h-25q-137 0 -197 -13q-56 -11 -76.5 -34.5t-20.5 -61.5v-77h90v-96h-90v-534h-110v534h-89v96h89v83q0 142 184 177q82 16 234 16q146 0 216 -14q91 -18 138 -57.5z" />
    <glyph glyph-name="uni093F.06" 
d="M895 834q47 -39 47 -95q0 -29 -1 -39h-106v31q0 23 -21.5 42.5t-70.5 29.5q-65 13 -212 13h-27q-71 0 -128.5 -4t-87.5 -10q-57 -11 -78 -35.5t-21 -62.5v-74h90v-96h-90v-534h-110v534h-89v96h89v81q0 143 186 178q90 17 255 17q156 0 236 -15q92 -18 139 -57z" />
    <glyph glyph-name="uni093F.07" 
d="M939 833q47 -39 47 -94q0 -29 -1 -39h-106v30q0 23 -21.5 42.5t-71.5 29.5q-68 13 -232 13h-29q-171 0 -235 -14q-58 -11 -79.5 -35.5t-21.5 -63.5v-72h90v-96h-90v-534h-110v534h-89v96h89v79q0 142 187 179q93 18 276 18q175 0 258 -16q92 -18 139 -57z" />
    <glyph glyph-name="uni093F.08" 
d="M983.5 832q47.5 -39 47.5 -94q0 -18 -2 -38h-106v30q0 51 -93 71q-72 14 -254 14h-30q-85 0 -153 -4t-102 -11q-58 -11 -80 -36t-22 -64v-70h90v-96h-90v-534h-110v534h-89v96h89v77q0 144 188 180q95 19 297 19q194 0 279 -17q93 -18 140.5 -57z" />
    <glyph glyph-name="uni093F.09" 
d="M1028 831q47 -39 47 -93q0 -28 -1 -38h-106v29q0 51 -95 71q-72 15 -274 15h-32q-93 0 -166 -4.5t-108 -11.5q-58 -11 -81 -36.5t-23 -65.5v-67h90v-96h-90v-534h-110v534h-89v96h89v74q0 146 190 182q105 20 317 20t301 -18q94 -18 141 -57z" />
    <glyph glyph-name="uni093F.10" 
d="M1072 830.5q47 -38.5 47 -92.5q0 -28 -1 -38h-106v28q0 50 -95 71q-82 16 -295 16h-33q-98 0 -177.5 -4.5t-116.5 -12.5q-60 -12 -83 -37.5t-23 -65.5v-65h90v-96h-90v-534h-110v534h-89v96h89v72q0 146 191 183q107 21 339 21q101 0 187 -5t134 -14q95 -18 142 -56.5z
" />
    <glyph glyph-name="uni093F.11" 
d="M1117 829.5q47 -38.5 47 -92.5q0 -17 -2 -37h-106v28q0 49 -96 70q-83 17 -315 17h-35q-106 0 -190 -5t-123 -13q-61 -12 -84.5 -38t-23.5 -66v-63h90v-96h-90v-534h-110v534h-89v96h89v70q0 147 193 184q115 22 359 22q243 0 343 -20q96 -18 143 -56.5z" />
    <glyph glyph-name="uni093F.12" 
d="M1161 829q47 -38 47 -92q0 -27 -1 -37h-106v27q0 49 -97 70q-93 18 -337 18h-36q-111 0 -201 -5.5t-131 -13.5q-62 -12 -86 -38t-24 -68v-60h90v-96h-90v-534h-110v534h-89v96h89v67q0 149 194 186q118 23 380 23t364 -21q97 -18 144 -56z" />
    <glyph glyph-name="uni093F.13" 
d="M1252 737q0 -27 -1 -37h-106v26q0 49 -97 70q-95 19 -358 19h-38q-119 0 -214 -5.5t-137 -14.5q-62 -12 -87 -38.5t-25 -68.5v-58h90v-96h-90v-534h-110v534h-89v96h89v65q0 72 46.5 119.5t149.5 67.5q118 24 401 24q279 0 385 -22q191 -37 191 -147z" />
    <glyph glyph-name="uni093F.14" 
d="M1297 736q0 -16 -2 -36h-106v26q0 48 -98 69q-100 19 -378 19h-39q-126 0 -226.5 -5.5t-145.5 -14.5q-62 -12 -87.5 -39t-25.5 -69v-56h90v-96h-90v-534h-110v534h-89v96h89v63q0 150 197 188q128 25 422 25q131 0 240 -6t166 -17q193 -37 193 -147z" />
    <glyph glyph-name="uni093F.15" 
d="M1341 736q0 -26 -1 -36h-107v25q0 48 -98 69q-102 20 -399 20h-41q-133 0 -238.5 -5.5t-152.5 -14.5q-63 -14 -89 -41t-26 -70v-53h90v-96h-90v-534h-110v534h-89v96h89v61q0 151 199 189q130 26 442 26q139 0 253.5 -6t174.5 -18q193 -36 193 -146z" />
    <glyph glyph-name="uni093F.16" 
d="M1385 735q0 -25 -1 -35h-106v24q0 48 -100 68q-100 22 -419 22h-43q-141 0 -251.5 -5.5t-158.5 -15.5q-64 -14 -90.5 -41.5t-26.5 -70.5v-51h90v-96h-90v-534h-110v534h-89v96h89v58q0 73 47 121.5t153 69.5q132 27 463 27q147 0 267 -6t182 -18q194 -37 194 -147z" />
    <glyph glyph-name="uni093F.17" 
d="M1430 735q0 -15 -2 -35h-106v23q0 48 -100 68q-109 23 -441 23h-44q-146 0 -262.5 -6t-166.5 -16q-66 -14 -92.5 -42t-26.5 -71v-49h90v-96h-90v-534h-110v534h-89v96h89v56q0 73 47.5 122t154.5 70q140 28 484 28q154 0 279.5 -6t190.5 -19q195 -39 195 -146z" />
    <glyph glyph-name="uni093F.18" 
d="M1474 735q0 -15 -2 -35h-106v23q0 47 -101 67q-111 24 -461 24h-46q-154 0 -275.5 -6t-172.5 -17q-66 -14 -93.5 -42t-27.5 -73v-46h90v-96h-90v-534h-110v534h-89v96h89v54q0 73 47.5 123t155.5 71q147 28 505 28q159 0 291.5 -6.5t199.5 -19.5q196 -38 196 -145z" />
    <glyph glyph-name="uni093F.19" 
d="M1472 822q46 -37 46 -88q0 -24 -1 -34h-106v22q0 22 -23.5 39t-78.5 28q-120 25 -482 25h-47q-160 0 -287 -6.5t-181 -17.5q-67 -14 -95 -42.5t-28 -73.5v-44h90v-96h-90v-534h-110v534h-89v96h89v51q0 74 48 124t157 72q71 13 205.5 21t319.5 8q168 0 305.5 -6.5
t207.5 -20.5q104 -20 150 -57z" />
    <glyph glyph-name="uni093F.20" 
d="M1563 734q0 -14 -2 -34h-106v21q0 22 -24 39t-79 28q-121 26 -502 26h-49q-168 0 -300 -7t-188 -18q-68 -14 -96 -43t-28 -75v-41h90v-96h-90v-534h-110v534h-89v96h89v49q0 74 48 124.5t158 72.5q74 14 213.5 22t333.5 8q176 0 318.5 -7t214.5 -21q198 -38 198 -144z
" />
    <glyph glyph-name="uni093F.21" 
d="M1561 820q46 -36 46 -86q0 -14 -2 -34h-106v21q0 45 -103 66q-120 26 -524 26h-50q-174 0 -312 -7t-195 -18q-68 -14 -97 -43.5t-29 -75.5v-39h90v-96h-90v-534h-110v534h-89v96h89v47q0 75 48 125.5t159 72.5q160 31 568 31q184 0 332.5 -7t222.5 -22q106 -21 152 -57z
" />
    <glyph glyph-name="uni093F.22" 
d="M1605 819q46 -36 46 -86q0 -23 -1 -33h-106v20q0 44 -105 66q-127 27 -544 27h-52q-183 0 -325.5 -7t-200.5 -19q-69 -14 -98.5 -44t-29.5 -76v-37h90v-96h-90v-534h-110v534h-89v96h89v45q0 75 48.5 126t160.5 73q78 15 228.5 23.5t359.5 8.5q188 0 343.5 -7.5
t232.5 -22.5q107 -21 153 -57z" />
    <glyph glyph-name="uni093F.23" 
d="M1650 818.5q46 -35.5 46 -85.5q0 -13 -2 -33h-106v19q0 22 -24.5 38t-80.5 28q-130 28 -565 28h-54q-187 0 -335.5 -7.5t-209.5 -19.5q-70 -14 -100 -44.5t-30 -77.5v-34h90v-96h-90v-534h-110v534h-89v96h89v42q0 76 48.5 127t161.5 74q81 15 236 24t374 9
q196 0 357 -7.5t240 -23.5q108 -21 154 -56.5z" />
    <glyph glyph-name="uni093F.24" 
d="M1694 817.5q46 -35.5 46 -85.5q0 -12 -2 -32h-106v19q0 21 -24.5 37t-80.5 28q-140 29 -586 29h-55q-196 0 -349.5 -7.5t-215.5 -20.5q-71 -15 -101.5 -45t-30.5 -78v-32h90v-96h-90v-534h-110v534h-89v96h89v40q0 76 49 127.5t163 74.5q172 34 630 34q205 0 371 -8
t247 -24q109 -21 155 -56.5z" />
    <glyph glyph-name="uni093F.25" 
d="M1738 816.5q46 -35.5 46 -84.5q0 -22 -1 -32h-107v18q0 21 -24.5 37t-81.5 28q-141 30 -606 30h-57q-201 0 -360 -8t-224 -21q-72 -15 -103 -45.5t-31 -78.5v-30h90v-96h-90v-534h-110v534h-89v96h89v38q0 76 49 128t164 75q85 16 251 25.5t400 9.5q214 0 385 -8t255 -25
q109 -21 155 -56.5z" />
    <glyph glyph-name="uni093F.26" 
d="M1782.5 815.5q46.5 -35.5 46.5 -83.5q0 -12 -2 -32h-106v17q0 21 -25 37t-82 28q-150 31 -628 31h-58q-208 0 -373 -8t-231 -22q-73 -15 -104 -46t-31 -80v-27h90v-96h-90v-534h-110v534h-89v96h89v35q0 77 49.5 129.5t165.5 75.5q86 17 257 26.5t414 9.5
q218 0 396.5 -8.5t264.5 -25.5q110 -21 156.5 -56.5z" />
    <glyph glyph-name="uni093F.27" 
d="M1827 814.5q46 -35.5 46 -83.5q0 -11 -2 -31h-106v17q0 21 -25 36.5t-83 27.5q-151 32 -648 32h-60q-213 0 -383.5 -8.5t-239.5 -22.5q-73 -15 -105 -46.5t-32 -80.5v-25h90v-96h-90v-534h-110v534h-89v96h89v33q0 77 49.5 130t166.5 76q90 17 267 27t426 10
q226 0 409.5 -8.5t272.5 -26.5q111 -21 157 -56.5z" />
    <glyph glyph-name="uni093F.28" 
d="M1871 814q46 -35 46 -83q0 -21 -2 -31h-106v16q0 21 -25 36.5t-83 27.5q-154 33 -669 33h-61q-222 0 -397.5 -9t-245.5 -23q-74 -15 -106.5 -47t-32.5 -81v-23h90v-96h-90v-534h-110v534h-89v96h89v31q0 78 49.5 131t168.5 76q91 18 273 28t440 10q235 0 423.5 -9
t279.5 -27q112 -21 158 -56z" />
    <glyph glyph-name="uni093F.29" 
d="M1916 812q46 -35 46 -82q0 -10 -2 -30h-106v15q0 21 -25.5 36.5t-84.5 27.5q-158 33 -689 33h-63q-229 0 -409.5 -9t-252.5 -23q-75 -16 -108 -48t-33 -82v-20h90v-96h-90v-534h-110v534h-89v96h89v29q0 78 50 131t169 77q93 18 280 28.5t454 10.5q243 0 437.5 -9
t287.5 -28q113 -22 159 -57z" />
    <glyph glyph-name="uni093F.30" 
d="M1960 811.5q46 -34.5 46 -81.5q0 -10 -2 -30h-106v14q0 21 -25 36t-85 28q-160 34 -711 34h-64q-237 0 -422 -9t-259 -24q-76 -16 -109.5 -48.5t-33.5 -82.5v-18h90v-96h-90v-534h-110v534h-89v96h89v26q0 79 50 132.5t171 77.5q96 19 288.5 29.5t466.5 10.5
q247 0 448 -9.5t297 -28.5q114 -22 160 -56.5z" />
    <glyph glyph-name="uni093F0901.01" 
d="M849 828h-107v107h107v-107zM975 848q0 -75 -47 -120.5t-131 -45.5q-52 0 -89 18h-95v35q0 24 -20.5 43.5t-67.5 29.5q-42 8 -108 8h-19q-78 0 -120 -9q-52 -10 -70.5 -32.5t-18.5 -58.5v-86h90v-96h-90v-534h-110v534h-89v96h89v93q0 66 44 109.5t134 60.5q65 13 151 13
q71 0 131 -10q77 -15 122 -48h42q0 -52 22 -75.5t72 -23.5t72.5 23.5t22.5 75.5h83z" />
    <glyph glyph-name="uni093F0901.02" 
d="M892 828h-107v107h107v-107zM1018 848q0 -75 -47 -120.5t-131 -45.5q-51 0 -89 18h-94v34q0 24 -20.5 43.5t-67.5 29.5q-52 9 -129 9h-21q-89 0 -139 -10q-53 -10 -72 -33t-19 -59v-84h90v-96h-90v-534h-110v534h-89v96h89v90q0 138 180 173q68 13 171 13q91 0 152 -11
q76 -15 122 -47h42q0 -52 22 -75.5t72 -23.5t72.5 23.5t22.5 75.5h83z" />
    <glyph glyph-name="uni093F0901.03" 
d="M937 828h-107v107h107v-107zM1063 848q0 -75 -47 -120.5t-131 -45.5q-52 0 -89 18h-94v33q0 24 -21 43.5t-69 29.5q-52 10 -150 10h-22q-108 0 -158 -11q-54 -10 -73.5 -33t-19.5 -60v-82h90v-96h-90v-534h-110v534h-89v96h89v88q0 67 44.5 111.5t136.5 62.5
q70 14 193 14q109 0 173 -12q77 -15 121 -46h44q0 -52 22 -75.5t72 -23.5t72.5 23.5t22.5 75.5h83z" />
    <glyph glyph-name="uni093F0901.04" 
d="M981 828h-107v107h107v-107zM1107 848q0 -75 -47 -120.5t-131 -45.5q-51 0 -89 18h-94v33q0 23 -21 42.5t-69 29.5q-55 11 -171 11h-24q-117 0 -177 -12q-55 -10 -75 -34t-20 -61v-79h90v-96h-90v-534h-110v534h-89v96h89v86q0 140 183 175q80 15 213 15q128 0 194 -13
q76 -15 121 -45h45q0 -52 22 -75.5t72 -23.5t72.5 23.5t22.5 75.5h83z" />
    <glyph glyph-name="uni093F0901.05" 
d="M1025 828h-107v107h107v-107zM1151 848q0 -75 -47 -120.5t-131 -45.5q-52 0 -89 18h-94v32q0 53 -91 72q-63 12 -191 12h-25q-137 0 -197 -13q-56 -11 -76.5 -34.5t-20.5 -61.5v-77h90v-96h-90v-534h-110v534h-89v96h89v83q0 142 184 177q82 16 234 16q146 0 216 -14
q74 -15 120 -44h46q0 -52 22 -75.5t72 -23.5t72.5 23.5t22.5 75.5h83z" />
    <glyph glyph-name="uni093F0901.06" 
d="M1070 828h-107v107h107v-107zM1196 848q0 -75 -47 -120.5t-131 -45.5q-51 0 -89 18h-94v31q0 23 -21.5 42.5t-70.5 29.5q-65 13 -212 13h-27q-71 0 -128.5 -4t-87.5 -10q-57 -11 -78 -35.5t-21 -62.5v-74h90v-96h-90v-534h-110v534h-89v96h89v81q0 143 186 178
q90 17 255 17q156 0 236 -15q75 -15 119 -43h49q0 -52 22 -75.5t72 -23.5t72.5 23.5t22.5 75.5h83z" />
    <glyph glyph-name="uni093F0901.07" 
d="M1114 828h-107v107h107v-107zM1240 848q0 -75 -47 -120.5t-131 -45.5q-51 0 -89 18h-94v30q0 23 -21.5 42.5t-71.5 29.5q-68 13 -232 13h-29q-171 0 -235 -14q-58 -11 -79.5 -35.5t-21.5 -63.5v-72h90v-96h-90v-534h-110v534h-89v96h89v79q0 142 187 179q93 18 276 18
q175 0 258 -16q71 -13 118 -42h50q0 -52 22 -75.5t72 -23.5t72.5 23.5t22.5 75.5h83z" />
    <glyph glyph-name="uni093F0901.08" 
d="M1159 828h-107v107h107v-107zM1285 848q0 -75 -47 -120.5t-131 -45.5q-52 0 -89 18h-95v30q0 51 -93 71q-72 14 -254 14h-30q-85 0 -153 -4t-102 -11q-58 -11 -80 -36t-22 -64v-70h90v-96h-90v-534h-110v534h-89v96h89v77q0 144 188 180q95 19 297 19q194 0 279 -17
q72 -13 118 -41h52q0 -52 22 -75.5t72 -23.5t72.5 23.5t22.5 75.5h83z" />
    <glyph glyph-name="uni093F0901.09" 
d="M1202 828h-107v107h107v-107zM1328 848q0 -75 -47 -120.5t-131 -45.5q-51 0 -89 18h-93v29q0 51 -95 71q-72 15 -274 15h-32q-93 0 -166 -4.5t-108 -11.5q-58 -11 -81 -36.5t-23 -65.5v-67h90v-96h-90v-534h-110v534h-89v96h89v74q0 146 190 182q105 20 317 20t301 -18
q70 -13 116 -40h53q0 -52 22 -75.5t72 -23.5t72.5 23.5t22.5 75.5h83z" />
    <glyph glyph-name="uni093F0901.10" 
d="M1247 828h-107v107h107v-107zM1373 848q0 -75 -47 -120.5t-131 -45.5q-51 0 -89 18h-94v28q0 50 -95 71q-82 16 -295 16h-33q-98 0 -177.5 -4.5t-116.5 -12.5q-60 -12 -83 -37.5t-23 -65.5v-65h90v-96h-90v-534h-110v534h-89v96h89v72q0 146 191 183q107 21 339 21
q101 0 187 -5t134 -14q71 -13 116 -39h55q0 -52 22 -75.5t72 -23.5t72.5 23.5t22.5 75.5h83z" />
    <glyph glyph-name="uni093F0901.11" 
d="M1292 828h-107v107h107v-107zM1418 848q0 -75 -47 -120.5t-131 -45.5q-51 0 -89 18h-95v28q0 49 -96 70q-83 17 -315 17h-35q-106 0 -190 -5t-123 -13q-61 -12 -84.5 -38t-23.5 -66v-63h90v-96h-90v-534h-110v534h-89v96h89v70q0 147 193 184q115 22 359 22
q243 0 343 -20q70 -13 115 -38h57q0 -52 22 -75.5t72 -23.5t72.5 23.5t22.5 75.5h83z" />
    <glyph glyph-name="uni093F0901.12" 
d="M1335 828h-107v107h107v-107zM1461 848q0 -75 -47 -120.5t-131 -45.5q-52 0 -89 18h-93v27q0 49 -97 70q-93 18 -337 18h-36q-111 0 -201 -5.5t-131 -13.5q-62 -12 -86 -38t-24 -68v-60h90v-96h-90v-534h-110v534h-89v96h89v67q0 149 194 186q118 23 380 23t364 -21
q70 -13 115 -37h57q0 -52 22 -75.5t72 -23.5t72.5 23.5t22.5 75.5h83z" />
    <glyph glyph-name="uni093F0901.13" 
d="M1380 828h-107v107h107v-107zM1506 848q0 -75 -47 -120.5t-131 -45.5q-51 0 -89 18h-94v26q0 49 -97 70q-95 19 -358 19h-38q-119 0 -214 -5.5t-137 -14.5q-62 -12 -87 -38.5t-25 -68.5v-58h90v-96h-90v-534h-110v534h-89v96h89v65q0 72 46.5 119.5t149.5 67.5
q118 24 401 24q279 0 385 -22q70 -13 112 -36h61q0 -52 22 -75.5t72 -23.5t72.5 23.5t22.5 75.5h83z" />
    <glyph glyph-name="uni093F0901.14" 
d="M1424 828h-107v107h107v-107zM1550 848q0 -75 -47 -120.5t-131 -45.5q-51 0 -89 18h-94v26q0 48 -98 69q-100 19 -378 19h-39q-126 0 -226.5 -5.5t-145.5 -14.5q-62 -12 -87.5 -39t-25.5 -69v-56h90v-96h-90v-534h-110v534h-89v96h89v63q0 150 197 188q128 25 422 25
q131 0 240 -6t166 -17q66 -13 112 -35h62q0 -52 22 -75.5t72 -23.5t72.5 23.5t22.5 75.5h83z" />
    <glyph glyph-name="uni093F0901.15" 
d="M1468 828h-107v107h107v-107zM1594 848q0 -75 -47 -120.5t-131 -45.5q-51 0 -89 18h-94v25q0 48 -98 69q-102 20 -399 20h-41q-133 0 -238.5 -5.5t-152.5 -14.5q-63 -14 -89 -41t-26 -70v-53h90v-96h-90v-534h-110v534h-89v96h89v61q0 151 199 189q130 26 442 26
q139 0 253.5 -6t174.5 -18q70 -14 110 -34h64q0 -52 22 -75.5t72 -23.5t72.5 23.5t22.5 75.5h83z" />
    <glyph glyph-name="uni093F0901.16" 
d="M1513 828h-107v107h107v-107zM1639 848q0 -75 -47 -120.5t-131 -45.5q-51 0 -89 18h-94v24q0 48 -100 68q-100 22 -419 22h-43q-141 0 -251.5 -5.5t-158.5 -15.5q-64 -14 -90.5 -41.5t-26.5 -70.5v-51h90v-96h-90v-534h-110v534h-89v96h89v58q0 73 47 121.5t153 69.5
q132 27 463 27q147 0 267 -6t182 -18q70 -14 110 -34h66q0 -52 22 -75.5t72 -23.5t72.5 23.5t22.5 75.5h83z" />
    <glyph glyph-name="uni093F0901.17" 
d="M1557 828h-107v107h107v-107zM1683 848q0 -75 -47 -120.5t-131 -45.5q-52 0 -89 18h-94v23q0 48 -100 68q-109 23 -441 23h-44q-146 0 -262.5 -6t-166.5 -16q-66 -14 -92.5 -42t-26.5 -71v-49h90v-96h-90v-534h-110v534h-89v96h89v56q0 73 47.5 122t154.5 70
q140 28 484 28q154 0 279.5 -6t190.5 -19q66 -13 108 -33h68q0 -52 22 -75.5t72 -23.5t72.5 23.5t22.5 75.5h83z" />
    <glyph glyph-name="uni093F0901.18" 
d="M1602 828h-107v107h107v-107zM1728 848q0 -75 -47 -120.5t-131 -45.5q-51 0 -89 18h-95v23q0 47 -101 67q-111 24 -461 24h-46q-154 0 -275.5 -6t-172.5 -17q-66 -14 -93.5 -42t-27.5 -73v-46h90v-96h-90v-534h-110v534h-89v96h89v54q0 73 47.5 123t155.5 71
q147 28 505 28q159 0 291.5 -6.5t199.5 -19.5q68 -14 107 -32h71q0 -52 22 -75.5t72 -23.5t72.5 23.5t22.5 75.5h83z" />
    <glyph glyph-name="uni093F0901.19" 
d="M1645 828h-107v107h107v-107zM1771 848q0 -75 -47 -120.5t-131 -45.5q-51 0 -89 18h-93v22q0 22 -23.5 39t-78.5 28q-120 25 -482 25h-47q-160 0 -287 -6.5t-181 -17.5q-67 -14 -95 -42.5t-28 -73.5v-44h90v-96h-90v-534h-110v534h-89v96h89v51q0 74 48 124t157 72
q71 13 205.5 21t319.5 8q168 0 305.5 -6.5t207.5 -20.5q58 -11 105 -31h72q0 -52 22 -75.5t72 -23.5t72.5 23.5t22.5 75.5h83z" />
    <glyph glyph-name="uni093F0901.20" 
d="M1690 828h-107v107h107v-107zM1816 848q0 -75 -47 -120.5t-131 -45.5q-51 0 -89 18h-94v21q0 22 -24 39t-79 28q-121 26 -502 26h-49q-168 0 -300 -7t-188 -18q-68 -14 -96 -43t-28 -75v-41h90v-96h-90v-534h-110v534h-89v96h89v49q0 74 48 124.5t158 72.5
q74 14 213.5 22t333.5 8q176 0 318.5 -7t214.5 -21q64 -12 104 -30h75q0 -52 22 -75.5t72 -23.5t72.5 23.5t22.5 75.5h83z" />
    <glyph glyph-name="uni093F0901.21" 
d="M1735 828h-107v107h107v-107zM1861 848q0 -75 -47 -120.5t-131 -45.5q-52 0 -89 18h-95v21q0 45 -103 66q-120 26 -524 26h-50q-174 0 -312 -7t-195 -18q-68 -14 -97 -43.5t-29 -75.5v-39h90v-96h-90v-534h-110v534h-89v96h89v47q0 75 48 125.5t159 72.5q160 31 568 31
q184 0 332.5 -7t222.5 -22q59 -12 102 -29h78q0 -52 22 -75.5t72 -23.5t72.5 23.5t22.5 75.5h83z" />
    <glyph glyph-name="uni093F0901.22" 
d="M1778 828h-107v107h107v-107zM1904 848q0 -75 -47 -120.5t-131 -45.5q-51 0 -89 18h-93v20q0 44 -105 66q-127 27 -544 27h-52q-183 0 -325.5 -7t-200.5 -19q-69 -14 -98.5 -44t-29.5 -76v-37h90v-96h-90v-534h-110v534h-89v96h89v45q0 75 48.5 126t160.5 73
q78 15 228.5 23.5t359.5 8.5q188 0 343.5 -7.5t232.5 -22.5q61 -12 100 -28h80q0 -52 22 -75.5t72 -23.5t72.5 23.5t22.5 75.5h83z" />
    <glyph glyph-name="uni093F0901.23" 
d="M1823 828h-107v107h107v-107zM1949 848q0 -75 -47 -120.5t-131 -45.5q-51 0 -89 18h-94v19q0 22 -24.5 38t-80.5 28q-130 28 -565 28h-54q-187 0 -335.5 -7.5t-209.5 -19.5q-70 -14 -100 -44.5t-30 -77.5v-34h90v-96h-90v-534h-110v534h-89v96h89v42q0 76 48.5 127
t161.5 74q81 15 236 24t374 9q196 0 357 -7.5t240 -23.5q57 -11 99 -27h82q0 -52 22 -75.5t72 -23.5t72.5 23.5t22.5 75.5h83z" />
    <glyph glyph-name="uni093F0901.24" 
d="M1867 828h-107v107h107v-107zM1993 848q0 -75 -47 -120.5t-131 -45.5q-51 0 -89 18h-94v19q0 21 -24.5 37t-80.5 28q-140 29 -586 29h-55q-196 0 -349.5 -7.5t-215.5 -20.5q-71 -15 -101.5 -45t-30.5 -78v-32h90v-96h-90v-534h-110v534h-89v96h89v40q0 76 49 127.5
t163 74.5q172 34 630 34q205 0 371 -8t247 -24q59 -12 100 -27v1h82q0 -52 22 -75.5t72 -23.5t72.5 23.5t22.5 75.5h83z" />
    <glyph glyph-name="uni093F0901.25" 
d="M1912 828h-107v107h107v-107zM2038 848q0 -75 -47 -120.5t-131 -45.5q-51 0 -89 18h-95v18q0 21 -24.5 37t-81.5 28q-141 30 -606 30h-57q-201 0 -360 -8t-224 -21q-72 -15 -103 -45.5t-31 -78.5v-30h90v-96h-90v-534h-110v534h-89v96h89v38q0 76 49 128t164 75
q85 16 251 25.5t400 9.5q214 0 385 -8t255 -25q62 -12 101 -28v3h82q0 -52 22 -75.5t72 -23.5t72.5 23.5t22.5 75.5h83z" />
    <glyph glyph-name="uni093F0901.26" 
d="M1956 828h-107v107h107v-107zM2082 848q0 -75 -47 -120.5t-131 -45.5q-52 0 -89 18h-94v17q0 21 -25 37t-82 28q-150 31 -628 31h-58q-208 0 -373 -8t-231 -22q-73 -15 -104 -46t-31 -80v-27h90v-96h-90v-534h-110v534h-89v96h89v35q0 77 49.5 129.5t165.5 75.5
q86 17 257 26.5t414 9.5q218 0 396.5 -8.5t264.5 -25.5q64 -12 102 -28v4h82q0 -52 22 -75.5t72 -23.5t72.5 23.5t22.5 75.5h83z" />
    <glyph glyph-name="uni093F0901.27" 
d="M2000 828h-107v107h107v-107zM2126 848q0 -75 -47 -120.5t-131 -45.5q-51 0 -89 18h-94v17q0 21 -25 36.5t-83 27.5q-151 32 -648 32h-60q-213 0 -383.5 -8.5t-239.5 -22.5q-73 -15 -105 -46.5t-32 -80.5v-25h90v-96h-90v-534h-110v534h-89v96h89v33q0 77 49.5 130
t166.5 76q90 17 267 27t426 10q226 0 409.5 -8.5t272.5 -26.5q64 -12 102 -28v5h82q0 -52 22 -75.5t72 -23.5t72.5 23.5t22.5 75.5h83z" />
    <glyph glyph-name="uni093F0901.28" 
d="M2045 828h-107v107h107v-107zM2171 848q0 -75 -47 -120.5t-131 -45.5q-51 0 -89 18h-95v16q0 21 -25 36.5t-83 27.5q-154 33 -669 33h-61q-222 0 -397.5 -9t-245.5 -23q-74 -15 -106.5 -47t-32.5 -81v-23h90v-96h-90v-534h-110v534h-89v96h89v31q0 78 49.5 131t168.5 76
q91 18 273 28t440 10q235 0 423.5 -9t279.5 -27q66 -13 104 -28v6h82q0 -52 22 -75.5t72 -23.5t72.5 23.5t22.5 75.5h83z" />
    <glyph glyph-name="uni093F0901.29" 
d="M2088 828h-107v107h107v-107zM2214 848q0 -75 -47 -120.5t-131 -45.5q-51 0 -89 18h-93v15q0 21 -25.5 36.5t-84.5 27.5q-158 33 -689 33h-63q-229 0 -409.5 -9t-252.5 -23q-75 -16 -108 -48t-33 -82v-20h90v-96h-90v-534h-110v534h-89v96h89v29q0 78 50 131t169 77
q93 18 280 28.5t454 10.5q243 0 437.5 -9t287.5 -28q64 -12 103 -28v7h82q0 -52 22 -75.5t72 -23.5t72.5 23.5t22.5 75.5h83z" />
    <glyph glyph-name="uni093F0901.30" 
d="M2133 828h-107v107h107v-107zM2259 848q0 -75 -47 -120.5t-131 -45.5q-52 0 -89 18h-94v14q0 21 -25 36t-85 28q-160 34 -711 34h-64q-237 0 -422 -9t-259 -24q-76 -16 -109.5 -48.5t-33.5 -82.5v-18h90v-96h-90v-534h-110v534h-89v96h89v26q0 79 50 132.5t171 77.5
q96 19 288.5 29.5t466.5 10.5q247 0 448 -9.5t297 -28.5q56 -10 105 -28v8h82q0 -52 22 -75.5t72 -23.5t72.5 23.5t22.5 75.5h83z" />
    <glyph glyph-name="uni093F0902.01" 
d="M0 0zM673 838.5q47 -40.5 47 -97.5q0 -31 -1 -41h-106v35q0 24 -20.5 43.5t-67.5 29.5q-42 8 -108 8h-19q-78 0 -120 -9q-52 -10 -70.5 -32.5t-18.5 -58.5v-86h90v-96h-90v-534h-110v534h-89v96h89v93q0 66 44 109.5t134 60.5q65 13 151 13q71 0 131 -10
q87 -17 134 -57.5zM759 906h126v-126h-126v126z" />
    <glyph glyph-name="uni093F0902.02" 
d="M0 0zM717.5 837.5q47.5 -40.5 47.5 -96.5q0 -31 -1 -41h-107v34q0 24 -20.5 43.5t-67.5 29.5q-52 9 -129 9h-21q-89 0 -139 -10q-53 -10 -72 -33t-19 -59v-84h90v-96h-90v-534h-110v534h-89v96h89v90q0 138 180 173q68 13 171 13q91 0 152 -11q88 -17 135.5 -57.5z
M802 906h126v-126h-126v126z" />
    <glyph glyph-name="uni093F0902.03" 
d="M0 0zM762 837q47 -40 47 -97q0 -30 -1 -40h-106v33q0 24 -21 43.5t-69 29.5q-52 10 -150 10h-22q-108 0 -158 -11q-54 -10 -73.5 -33t-19.5 -60v-82h90v-96h-90v-534h-110v534h-89v96h89v88q0 67 44.5 111.5t136.5 62.5q70 14 193 14q109 0 173 -12q89 -17 136 -57z
M847 906h126v-126h-126v126z" />
    <glyph glyph-name="uni093F0902.04" 
d="M0 0zM806 836q47 -40 47 -96q0 -30 -1 -40h-106v33q0 23 -21 42.5t-69 29.5q-55 11 -171 11h-24q-117 0 -177 -12q-55 -10 -75 -34t-20 -61v-79h90v-96h-90v-534h-110v534h-89v96h89v86q0 140 183 175q80 15 213 15q128 0 194 -13q90 -17 137 -57zM891 906h126v-126h-126
v126z" />
    <glyph glyph-name="uni093F0902.05" 
d="M0 0zM851 834.5q47 -39.5 47 -94.5q0 -30 -2 -40h-106v32q0 53 -91 72q-63 12 -191 12h-25q-137 0 -197 -13q-56 -11 -76.5 -34.5t-20.5 -61.5v-77h90v-96h-90v-534h-110v534h-89v96h89v83q0 142 184 177q82 16 234 16q146 0 216 -14q91 -18 138 -57.5zM935 906h126v-126
h-126v126z" />
    <glyph glyph-name="uni093F0902.06" 
d="M0 0zM895 834q47 -39 47 -95q0 -29 -1 -39h-106v31q0 23 -21.5 42.5t-70.5 29.5q-65 13 -212 13h-27q-71 0 -128.5 -4t-87.5 -10q-57 -11 -78 -35.5t-21 -62.5v-74h90v-96h-90v-534h-110v534h-89v96h89v81q0 143 186 178q90 17 255 17q156 0 236 -15q92 -18 139 -57z
M980 906h126v-126h-126v126z" />
    <glyph glyph-name="uni093F0902.07" 
d="M0 0zM939 833q47 -39 47 -94q0 -29 -1 -39h-106v30q0 23 -21.5 42.5t-71.5 29.5q-68 13 -232 13h-29q-171 0 -235 -14q-58 -11 -79.5 -35.5t-21.5 -63.5v-72h90v-96h-90v-534h-110v534h-89v96h89v79q0 142 187 179q93 18 276 18q175 0 258 -16q92 -18 139 -57zM1024 906
h126v-126h-126v126z" />
    <glyph glyph-name="uni093F0902.08" 
d="M0 0zM983.5 832q47.5 -39 47.5 -94q0 -18 -2 -38h-106v30q0 51 -93 71q-72 14 -254 14h-30q-85 0 -153 -4t-102 -11q-58 -11 -80 -36t-22 -64v-70h90v-96h-90v-534h-110v534h-89v96h89v77q0 144 188 180q95 19 297 19q194 0 279 -17q93 -18 140.5 -57zM1069 906h126v-126
h-126v126z" />
    <glyph glyph-name="uni093F0902.09" 
d="M0 0zM1028 831q47 -39 47 -93q0 -28 -1 -38h-106v29q0 51 -95 71q-72 15 -274 15h-32q-93 0 -166 -4.5t-108 -11.5q-58 -11 -81 -36.5t-23 -65.5v-67h90v-96h-90v-534h-110v534h-89v96h89v74q0 146 190 182q105 20 317 20t301 -18q94 -18 141 -57zM1112 906h126v-126
h-126v126z" />
    <glyph glyph-name="uni093F0902.10" 
d="M0 0zM1072 830.5q47 -38.5 47 -92.5q0 -28 -1 -38h-106v28q0 50 -95 71q-82 16 -295 16h-33q-98 0 -177.5 -4.5t-116.5 -12.5q-60 -12 -83 -37.5t-23 -65.5v-65h90v-96h-90v-534h-110v534h-89v96h89v72q0 146 191 183q107 21 339 21q101 0 187 -5t134 -14
q95 -18 142 -56.5zM1157 906h126v-126h-126v126z" />
    <glyph glyph-name="uni093F0902.11" 
d="M0 0zM1117 829.5q47 -38.5 47 -92.5q0 -17 -2 -37h-106v28q0 49 -96 70q-83 17 -315 17h-35q-106 0 -190 -5t-123 -13q-61 -12 -84.5 -38t-23.5 -66v-63h90v-96h-90v-534h-110v534h-89v96h89v70q0 147 193 184q115 22 359 22q243 0 343 -20q96 -18 143 -56.5zM1202 906
h126v-126h-126v126z" />
    <glyph glyph-name="uni093F0902.12" 
d="M0 0zM1161 829q47 -38 47 -92q0 -27 -1 -37h-106v27q0 49 -97 70q-93 18 -337 18h-36q-111 0 -201 -5.5t-131 -13.5q-62 -12 -86 -38t-24 -68v-60h90v-96h-90v-534h-110v534h-89v96h89v67q0 149 194 186q118 23 380 23t364 -21q97 -18 144 -56zM1245 906h126v-126h-126
v126z" />
    <glyph glyph-name="uni093F0902.13" 
d="M0 0zM1252 737q0 -27 -1 -37h-106v26q0 49 -97 70q-95 19 -358 19h-38q-119 0 -214 -5.5t-137 -14.5q-62 -12 -87 -38.5t-25 -68.5v-58h90v-96h-90v-534h-110v534h-89v96h89v65q0 72 46.5 119.5t149.5 67.5q118 24 401 24q279 0 385 -22q191 -37 191 -147zM1290 906h126
v-126h-126v126z" />
    <glyph glyph-name="uni093F0902.14" 
d="M0 0zM1297 736q0 -16 -2 -36h-106v26q0 48 -98 69q-100 19 -378 19h-39q-126 0 -226.5 -5.5t-145.5 -14.5q-62 -12 -87.5 -39t-25.5 -69v-56h90v-96h-90v-534h-110v534h-89v96h89v63q0 150 197 188q128 25 422 25q131 0 240 -6t166 -17q193 -37 193 -147zM1334 906h126
v-126h-126v126z" />
    <glyph glyph-name="uni093F0902.15" 
d="M0 0zM1341 736q0 -26 -1 -36h-107v25q0 48 -98 69q-102 20 -399 20h-41q-133 0 -238.5 -5.5t-152.5 -14.5q-63 -14 -89 -41t-26 -70v-53h90v-96h-90v-534h-110v534h-89v96h89v61q0 151 199 189q130 26 442 26q139 0 253.5 -6t174.5 -18q193 -36 193 -146zM1378 906h126
v-126h-126v126z" />
    <glyph glyph-name="uni093F0902.16" 
d="M0 0zM1385 735q0 -25 -1 -35h-106v24q0 48 -100 68q-100 22 -419 22h-43q-141 0 -251.5 -5.5t-158.5 -15.5q-64 -14 -90.5 -41.5t-26.5 -70.5v-51h90v-96h-90v-534h-110v534h-89v96h89v58q0 73 47 121.5t153 69.5q132 27 463 27q147 0 267 -6t182 -18q194 -37 194 -147z
M1423 906h126v-126h-126v126z" />
    <glyph glyph-name="uni093F0902.17" 
d="M0 0zM1430 735q0 -15 -2 -35h-106v23q0 48 -100 68q-109 23 -441 23h-44q-146 0 -262.5 -6t-166.5 -16q-66 -14 -92.5 -42t-26.5 -71v-49h90v-96h-90v-534h-110v534h-89v96h89v56q0 73 47.5 122t154.5 70q140 28 484 28q154 0 279.5 -6t190.5 -19q195 -39 195 -146z
M1467 906h126v-126h-126v126z" />
    <glyph glyph-name="uni093F0902.18" 
d="M0 0zM1474 735q0 -15 -2 -35h-106v23q0 47 -101 67q-111 24 -461 24h-46q-154 0 -275.5 -6t-172.5 -17q-66 -14 -93.5 -42t-27.5 -73v-46h90v-96h-90v-534h-110v534h-89v96h89v54q0 73 47.5 123t155.5 71q147 28 505 28q159 0 291.5 -6.5t199.5 -19.5q196 -38 196 -145z
M1512 906h126v-126h-126v126z" />
    <glyph glyph-name="uni093F0902.19" 
d="M0 0zM1472 822q46 -37 46 -88q0 -24 -1 -34h-106v22q0 22 -23.5 39t-78.5 28q-120 25 -482 25h-47q-160 0 -287 -6.5t-181 -17.5q-67 -14 -95 -42.5t-28 -73.5v-44h90v-96h-90v-534h-110v534h-89v96h89v51q0 74 48 124t157 72q71 13 205.5 21t319.5 8q168 0 305.5 -6.5
t207.5 -20.5q104 -20 150 -57zM1555 906h126v-126h-126v126z" />
    <glyph glyph-name="uni093F0902.20" 
d="M0 0zM1563 734q0 -14 -2 -34h-106v21q0 22 -24 39t-79 28q-121 26 -502 26h-49q-168 0 -300 -7t-188 -18q-68 -14 -96 -43t-28 -75v-41h90v-96h-90v-534h-110v534h-89v96h89v49q0 74 48 124.5t158 72.5q74 14 213.5 22t333.5 8q176 0 318.5 -7t214.5 -21
q198 -38 198 -144zM1600 906h126v-126h-126v126z" />
    <glyph glyph-name="uni093F0902.21" 
d="M0 0zM1561 820q46 -36 46 -86q0 -14 -2 -34h-106v21q0 45 -103 66q-120 26 -524 26h-50q-174 0 -312 -7t-195 -18q-68 -14 -97 -43.5t-29 -75.5v-39h90v-96h-90v-534h-110v534h-89v96h89v47q0 75 48 125.5t159 72.5q160 31 568 31q184 0 332.5 -7t222.5 -22
q106 -21 152 -57zM1645 906h126v-126h-126v126z" />
    <glyph glyph-name="uni093F0902.22" 
d="M0 0zM1605 819q46 -36 46 -86q0 -23 -1 -33h-106v20q0 44 -105 66q-127 27 -544 27h-52q-183 0 -325.5 -7t-200.5 -19q-69 -14 -98.5 -44t-29.5 -76v-37h90v-96h-90v-534h-110v534h-89v96h89v45q0 75 48.5 126t160.5 73q78 15 228.5 23.5t359.5 8.5q188 0 343.5 -7.5
t232.5 -22.5q107 -21 153 -57zM1688 906h126v-126h-126v126z" />
    <glyph glyph-name="uni093F0902.23" 
d="M0 0zM1650 818.5q46 -35.5 46 -85.5q0 -13 -2 -33h-106v19q0 22 -24.5 38t-80.5 28q-130 28 -565 28h-54q-187 0 -335.5 -7.5t-209.5 -19.5q-70 -14 -100 -44.5t-30 -77.5v-34h90v-96h-90v-534h-110v534h-89v96h89v42q0 76 48.5 127t161.5 74q81 15 236 24t374 9
q196 0 357 -7.5t240 -23.5q108 -21 154 -56.5zM1733 906h126v-126h-126v126z" />
    <glyph glyph-name="uni093F0902.24" 
d="M0 0zM1694 817.5q46 -35.5 46 -85.5q0 -12 -2 -32h-106v19q0 21 -24.5 37t-80.5 28q-140 29 -586 29h-55q-196 0 -349.5 -7.5t-215.5 -20.5q-71 -15 -101.5 -45t-30.5 -78v-32h90v-96h-90v-534h-110v534h-89v96h89v40q0 76 49 127.5t163 74.5q172 34 630 34q205 0 371 -8
t247 -24q109 -21 155 -56.5zM1777 906h126v-126h-126v126z" />
    <glyph glyph-name="uni093F0902.25" 
d="M0 0zM1738 816.5q46 -35.5 46 -84.5q0 -22 -1 -32h-107v18q0 21 -24.5 37t-81.5 28q-141 30 -606 30h-57q-201 0 -360 -8t-224 -21q-72 -15 -103 -45.5t-31 -78.5v-30h90v-96h-90v-534h-110v534h-89v96h89v38q0 76 49 128t164 75q85 16 251 25.5t400 9.5q214 0 385 -8
t255 -25q109 -21 155 -56.5zM1822 906h126v-126h-126v126z" />
    <glyph glyph-name="uni093F0902.26" 
d="M0 0zM1782.5 815.5q46.5 -35.5 46.5 -83.5q0 -12 -2 -32h-106v17q0 21 -25 37t-82 28q-150 31 -628 31h-58q-208 0 -373 -8t-231 -22q-73 -15 -104 -46t-31 -80v-27h90v-96h-90v-534h-110v534h-89v96h89v35q0 77 49.5 129.5t165.5 75.5q86 17 257 26.5t414 9.5
q218 0 396.5 -8.5t264.5 -25.5q110 -21 156.5 -56.5zM1866 906h126v-126h-126v126z" />
    <glyph glyph-name="uni093F0902.27" 
d="M0 0zM1827 814.5q46 -35.5 46 -83.5q0 -11 -2 -31h-106v17q0 21 -25 36.5t-83 27.5q-151 32 -648 32h-60q-213 0 -383.5 -8.5t-239.5 -22.5q-73 -15 -105 -46.5t-32 -80.5v-25h90v-96h-90v-534h-110v534h-89v96h89v33q0 77 49.5 130t166.5 76q90 17 267 27t426 10
q226 0 409.5 -8.5t272.5 -26.5q111 -21 157 -56.5zM1910 906h126v-126h-126v126z" />
    <glyph glyph-name="uni093F0902.28" 
d="M0 0zM1871 814q46 -35 46 -83q0 -21 -2 -31h-106v16q0 21 -25 36.5t-83 27.5q-154 33 -669 33h-61q-222 0 -397.5 -9t-245.5 -23q-74 -15 -106.5 -47t-32.5 -81v-23h90v-96h-90v-534h-110v534h-89v96h89v31q0 78 49.5 131t168.5 76q91 18 273 28t440 10q235 0 423.5 -9
t279.5 -27q112 -21 158 -56zM1955 906h126v-126h-126v126z" />
    <glyph glyph-name="uni093F0902.29" 
d="M0 0zM1916 812q46 -35 46 -82q0 -10 -2 -30h-106v15q0 21 -25.5 36.5t-84.5 27.5q-158 33 -689 33h-63q-229 0 -409.5 -9t-252.5 -23q-75 -16 -108 -48t-33 -82v-20h90v-96h-90v-534h-110v534h-89v96h89v29q0 78 50 131t169 77q93 18 280 28.5t454 10.5q243 0 437.5 -9
t287.5 -28q113 -22 159 -57zM1998 906h126v-126h-126v126z" />
    <glyph glyph-name="uni093F0902.30" 
d="M0 0zM1960 811.5q46 -34.5 46 -81.5q0 -10 -2 -30h-106v14q0 21 -25 36t-85 28q-160 34 -711 34h-64q-237 0 -422 -9t-259 -24q-76 -16 -109.5 -48.5t-33.5 -82.5v-18h90v-96h-90v-534h-110v534h-89v96h89v26q0 79 50 132.5t171 77.5q96 19 288.5 29.5t466.5 10.5
q247 0 448 -9.5t297 -28.5q114 -22 160 -56.5zM2043 906h126v-126h-126v126z" />
    <glyph glyph-name="uni093F0930094D.01" 
d="M712 860v-97h-11q-46 0 -69.5 -17t-23.5 -49q0 -16 5 -38h-89q-11 38 -11 67q0 9 1 13q-6 53 -69 70q-24 7 -80 7h-22q-53 0 -81 -6q-37 -9 -55 -30.5t-18 -63.5v-86h90v-96h-90v-534h-110v534h-89v96h89v93q0 72 41 114.5t114 57.5q50 11 117 11q64 0 114 -9
q76 -19 112 -62q44 25 105 25h30z" />
    <glyph glyph-name="uni093F0930094D.02" 
d="M760 860v-97h-11q-46 0 -69.5 -17t-23.5 -49q0 -16 5 -38h-89q-11 38 -11 67v4v0q0 30 -18 49t-52 29q-32 8 -102 8h-23q-64 0 -101 -7q-39 -8 -57.5 -30.5t-18.5 -64.5v-84h90v-96h-90v-534h-110v534h-89v96h89v90q0 73 41.5 116t115.5 58q54 12 139 12q83 0 136 -10
q76 -19 114 -61q44 25 105 25h30z" />
    <glyph glyph-name="uni093F0930094D.03" 
d="M808 860v-97h-11q-46 0 -69.5 -17t-23.5 -49q0 -16 5 -38h-89q-11 38 -11 67v4v0q0 30 -18 48.5t-54 28.5q-34 9 -123 9h-24q-85 0 -123 -8q-40 -9 -59 -31.5t-19 -64.5v-82h90v-96h-90v-534h-110v534h-89v96h89v88q0 72 41.5 116t118.5 59q62 13 160 13q101 0 158 -11
q77 -18 115 -61q43 26 106 26h30z" />
    <glyph glyph-name="uni093F0930094D.04" 
d="M855 860v-97h-11q-46 0 -69.5 -17t-23.5 -49q0 -16 5 -38h-89q-11 38 -11 67q0 8 1 13q-6 48 -73 67q-39 10 -146 10h-25q-96 0 -143 -9q-42 -9 -61.5 -32t-19.5 -66v-79h90v-96h-90v-534h-110v534h-89v96h89v86q0 73 42 117t120 59q65 14 183 14q121 0 179 -12
q77 -18 116 -60q43 26 106 26h30z" />
    <glyph glyph-name="uni093F0930094D.05" 
d="M903 860v-97h-11q-46 0 -69.5 -17t-23.5 -49q0 -16 5 -38h-89q-11 38 -11 67q0 8 1 12q-5 48 -75 67q-46 11 -167 11h-27q-116 0 -164 -10q-43 -9 -63 -32.5t-20 -66.5v-77h90v-96h-90v-534h-110v534h-89v96h89v83q0 145 164 178q68 15 205 15q139 0 201 -13
q78 -18 117 -59q43 26 107 26h30z" />
    <glyph glyph-name="uni093F0930094D.06" 
d="M950 860v-97h-11q-46 0 -69.5 -17t-23.5 -49q0 -16 5 -38h-89q-11 38 -11 67q0 8 1 12q-3 25 -22 41t-54 25q-48 12 -188 12h-29q-60 0 -110 -3t-75 -8q-44 -10 -64.5 -33.5t-20.5 -67.5v-74h90v-96h-90v-534h-110v534h-89v96h89v81q0 73 42.5 118t123.5 61q77 16 227 16
t223 -14q81 -19 117 -59q44 27 108 27h30z" />
    <glyph glyph-name="uni093F0930094D.07" 
d="M998 860v-97h-11q-46 0 -69.5 -17t-23.5 -49q0 -16 5 -38h-89q-11 38 -11 67q0 8 1 12q-6 46 -77 65q-54 12 -211 12h-30q-150 0 -205 -11q-45 -10 -66.5 -34.5t-21.5 -67.5v-72h90v-96h-90v-534h-110v534h-89v96h89v79q0 146 169 180q79 17 248 17q170 0 245 -15
q79 -18 119 -58q44 27 108 27h30z" />
    <glyph glyph-name="uni093F0930094D.08" 
d="M1046 860v-97h-11q-46 0 -69.5 -17t-23.5 -49q0 -16 5 -38h-89q-11 38 -11 67v12q-4 46 -78 64q-56 13 -232 13h-32q-75 0 -136 -3.5t-90 -8.5q-47 -11 -68.5 -35.5t-21.5 -67.5v-70h90v-96h-90v-534h-110v534h-89v96h89v77q0 73 43.5 118.5t127.5 62.5q88 18 271 18
q187 0 266 -16q80 -18 120 -58q44 28 109 28h30z" />
    <glyph glyph-name="uni093F0930094D.09" 
d="M1094 860v-97h-11q-46 0 -69.5 -17t-23.5 -49q0 -16 5 -38h-89q-11 38 -11 67v12q-4 45 -80 62q-63 15 -254 15h-33q-83 0 -149.5 -3.5t-96.5 -9.5q-48 -11 -70.5 -36t-22.5 -69v-67h90v-96h-90v-534h-110v534h-89v96h89v74q0 148 173 183q92 19 293 19q206 0 288 -17
q80 -18 121 -57q44 28 110 28h30z" />
    <glyph glyph-name="uni093F0930094D.10" 
d="M1141 860v-97h-11q-46 0 -69.5 -17t-23.5 -49q0 -16 5 -38h-89q-11 38 -11 67v11q-6 46 -81 62q-65 16 -275 16h-35q-90 0 -162 -4t-105 -11q-50 -11 -72.5 -36t-22.5 -69v-65h90v-96h-90v-534h-110v534h-89v96h89v72q0 74 44 120.5t131 63.5q94 20 315 20q98 0 182 -4.5
t128 -13.5q81 -18 121 -56q45 28 111 28h30z" />
    <glyph glyph-name="uni093F0930094D.11" 
d="M1189 860v-97h-11q-46 0 -69.5 -17t-23.5 -49q0 -16 5 -38h-89q-11 38 -11 67v11q-3 22 -23 37t-59 24q-74 17 -298 17h-36q-99 0 -176.5 -4.5t-111.5 -11.5q-50 -10 -73.5 -36t-23.5 -70v-63h90v-96h-90v-534h-110v534h-89v96h89v70q0 149 178 185q103 21 336 21
q106 0 195.5 -5t137.5 -14q82 -18 121 -56q44 29 112 29h30z" />
    <glyph glyph-name="uni093F0930094D.12" 
d="M1237 860v-97h-11q-46 0 -69.5 -17t-23.5 -49q0 -16 5 -38h-89q-11 38 -11 67v11q-3 22 -23.5 36.5t-60.5 23.5q-76 18 -319 18h-38q-104 0 -188 -4.5t-120 -12.5q-52 -11 -76 -37t-24 -71v-60h90v-96h-90v-534h-110v534h-89v96h89v67q0 150 180 187q105 22 359 22
q114 0 209.5 -5t144.5 -15q81 -17 123 -56q46 30 112 30h30z" />
    <glyph glyph-name="uni093F0930094D.13" 
d="M1285 860v-97h-11q-46 0 -69.5 -17t-23.5 -49q0 -16 5 -38h-89q-11 38 -11 67v2v0q0 25 -21 41.5t-65 26.5q-86 19 -340 19h-40q-113 0 -202 -5t-127 -13q-53 -11 -77.5 -37.5t-24.5 -71.5v-58h90v-96h-90v-534h-110v534h-89v96h89v65q0 152 182 188q115 23 381 23
q274 0 376 -21q82 -18 124 -55q46 30 113 30h30z" />
    <glyph glyph-name="uni093F0930094D.14" 
d="M1333 860v-97h-11q-46 0 -69.5 -17t-23.5 -49q0 -16 5 -38h-89q-11 38 -11 67v2v0q0 25 -21 41t-66 26q-85 19 -363 19h-40q-121 0 -215.5 -5t-135.5 -13q-54 -12 -79 -38.5t-25 -71.5v-56h90v-96h-90v-534h-110v534h-89v96h89v63q0 151 184 189q118 24 403 24
q128 0 235 -5.5t163 -16.5q86 -20 124 -55q47 31 115 31h30z" />
    <glyph glyph-name="uni093F0930094D.15" 
d="M1381 860v-97h-11q-46 0 -69.5 -17t-23.5 -49q0 -16 5 -38h-89q-11 38 -11 67v2v0q0 25 -21.5 40.5t-67.5 25.5q-87 20 -384 20h-42q-129 0 -229 -5t-142 -14q-56 -12 -81.5 -39t-25.5 -73v-53h90v-96h-90v-534h-110v534h-89v96h89v61q0 153 187 190q127 25 425 25
q135 0 248.5 -6t170.5 -17q86 -20 126 -55q44 32 115 32h30z" />
    <glyph glyph-name="uni093F0930094D.16" 
d="M1427 860v-97h-11q-46 0 -69.5 -17t-23.5 -49q0 -16 5 -38h-89q-11 38 -11 67q0 9 1 14q-10 37 -90 53q-96 21 -406 21h-43q-134 0 -240.5 -5.5t-151.5 -14.5q-57 -12 -83 -39.5t-26 -73.5v-51h90v-96h-90v-534h-110v534h-89v96h89v58q0 154 189 192q130 26 447 26
q144 0 262.5 -6t178.5 -18q85 -18 126 -53q45 31 115 31h30z" />
    <glyph glyph-name="uni093F0930094D.17" 
d="M1475 860v-97h-11q-46 0 -69.5 -17t-23.5 -49q0 -16 5 -38h-89q-11 38 -11 67v10q-6 39 -90 56q-98 22 -428 22h-45q-140 0 -252 -6t-160 -15q-59 -13 -85.5 -40.5t-26.5 -73.5v-49h90v-96h-90v-534h-110v534h-89v96h89v56q0 155 191 193q132 27 469 27q153 0 276.5 -6
t186.5 -19q83 -19 127 -53q46 32 116 32h30z" />
    <glyph glyph-name="uni093F0930094D.18" 
d="M1523 860v-97h-11q-46 0 -69.5 -17t-23.5 -49q0 -16 5 -38h-89q-11 38 -11 67v10q-6 38 -92 55q-107 23 -450 23h-46q-148 0 -266 -6t-167 -16q-60 -13 -87 -41t-27 -75v-46h90v-96h-90v-534h-110v534h-89v96h89v54q0 75 46.5 124.5t146.5 69.5q142 28 491 28
q157 0 288.5 -6.5t196.5 -19.5q84 -19 128 -53q46 33 117 33h30z" />
    <glyph glyph-name="uni093F0930094D.19" 
d="M1572 860v-97h-11q-46 0 -69.5 -17t-23.5 -49q0 -16 5 -38h-89q-11 38 -11 67v1v0q0 23 -22.5 38t-72.5 25q-109 24 -471 24h-48q-153 0 -277.5 -6.5t-176.5 -16.5q-61 -13 -88.5 -41.5t-27.5 -75.5v-44h90v-96h-90v-534h-110v534h-89v96h89v51q0 76 47 126t149 70
q143 29 513 29q166 0 302 -6.5t204 -20.5q89 -19 130 -53q45 34 118 34h30z" />
    <glyph glyph-name="uni093F0930094D.20" 
d="M1619 860v-97h-11q-46 0 -69.5 -17t-23.5 -49q0 -16 5 -38h-89q-11 38 -11 67v9q-4 18 -26.5 31t-68.5 23q-120 25 -493 25h-50q-162 0 -291.5 -6.5t-182.5 -17.5q-63 -13 -91 -42t-28 -77v-41h90v-96h-90v-534h-110v534h-89v96h89v49q0 76 47 126t151 71q71 14 208 22
t327 8q174 0 316 -7t212 -21q86 -19 130 -53q44 35 119 35h30z" />
    <glyph glyph-name="uni093F0930094D.21" 
d="M1667 860v-97h-11q-46 0 -69.5 -17t-23.5 -49q0 -16 5 -38h-89q-11 38 -11 67v1v0q0 22 -22.5 36.5t-74.5 24.5q-118 25 -515 25h-51q-169 0 -304.5 -6.5t-190.5 -17.5q-64 -14 -92.5 -43t-28.5 -77v-39h90v-96h-90v-534h-110v534h-89v96h89v47q0 76 47.5 126.5
t152.5 71.5q157 31 557 31q183 0 330.5 -7t219.5 -22q87 -19 131 -52q48 35 120 35h30z" />
    <glyph glyph-name="uni093F0930094D.22" 
d="M1714 860v-97h-11q-46 0 -69.5 -17t-23.5 -49q0 -16 5 -38h-89q-11 38 -11 67v9q-4 17 -27 29.5t-71 22.5q-127 26 -536 26h-53q-178 0 -318.5 -7t-196.5 -18q-66 -14 -95 -43.5t-29 -77.5v-37h90v-96h-90v-534h-110v534h-89v96h89v45q0 76 47.5 126.5t154.5 72.5
q158 32 579 32q188 0 342 -7.5t230 -22.5q87 -19 132 -51q48 35 120 35h30z" />
    <glyph glyph-name="uni093F0930094D.23" 
d="M1762 860v-97h-11q-46 0 -69.5 -17t-23.5 -49q0 -16 5 -38h-89q-11 38 -11 67v8q-4 17 -27.5 29.5t-71.5 21.5q-128 28 -559 28h-54q-184 0 -330 -7.5t-206 -19.5q-67 -14 -96.5 -43.5t-29.5 -78.5v-34h90v-96h-90v-534h-110v534h-89v96h89v42q0 77 48 128t157 73
q78 15 231.5 24t369.5 9q196 0 355.5 -7.5t237.5 -23.5q88 -18 133 -51q22 17 53 26.5t68 9.5h30z" />
    <glyph glyph-name="uni093F0930094D.24" 
d="M1810 860v-97h-11q-46 0 -69.5 -17t-23.5 -49q0 -16 5 -38h-89q-11 38 -11 67v8q-4 17 -28 29t-73 21q-129 29 -580 29h-56q-193 0 -344 -7.5t-213 -20.5q-68 -14 -98 -44t-30 -79v-32h90v-96h-90v-534h-110v534h-89v96h89v40q0 77 48 128.5t159 73.5q170 34 623 34
q204 0 369.5 -8t245.5 -24q90 -19 133 -51q46 37 123 37h30z" />
    <glyph glyph-name="uni093F0930094D.25" 
d="M1858 860v-97h-11q-46 0 -69.5 -17t-23.5 -49q0 -16 5 -38h-89q-11 38 -11 67v1v0q0 19 -24 32.5t-79 23.5q-138 30 -601 30h-57q-199 0 -356.5 -8t-221.5 -21q-70 -15 -100.5 -45t-30.5 -79v-30h90v-96h-90v-534h-110v534h-89v96h89v38q0 77 48.5 129t160.5 74
q84 16 248.5 25.5t396.5 9.5q213 0 383.5 -8t253.5 -25q90 -19 135 -51q46 38 123 38h30z" />
    <glyph glyph-name="uni093F0930094D.26" 
d="M1905 860v-97h-11q-46 0 -69.5 -17t-23.5 -49q0 -16 5 -38h-89q-11 38 -11 67v7q-8 32 -103 49q-142 31 -624 31h-58q-207 0 -370 -8t-229 -22q-70 -15 -101.5 -45.5t-31.5 -80.5v-27h90v-96h-90v-534h-110v534h-89v96h89v35q0 78 49 130t163 75q86 17 255.5 26.5
t410.5 9.5q218 0 395.5 -8.5t263.5 -25.5q89 -18 135 -50q48 38 124 38h30z" />
    <glyph glyph-name="uni093F0930094D.27" 
d="M1953 860v-97h-11q-46 0 -69.5 -17t-23.5 -49q0 -16 5 -38h-89q-11 38 -11 67v7q-8 31 -105 48q-151 32 -645 32h-60q-212 0 -381.5 -8.5t-237.5 -22.5q-73 -15 -104.5 -46t-31.5 -81v-25h90v-96h-90v-534h-110v534h-89v96h89v33q0 78 49 130.5t165 75.5q89 17 265 27
t424 10q225 0 408.5 -8.5t271.5 -26.5q91 -19 136 -50q47 39 125 39h30z" />
    <glyph glyph-name="uni093F0930094D.28" 
d="M2000 860v-97h-11q-46 0 -69.5 -17t-23.5 -49q0 -16 5 -38h-89q-11 38 -11 67v9q-11 30 -106 45q-153 33 -667 33h-61q-221 0 -395.5 -9t-244.5 -23q-73 -15 -105.5 -46.5t-32.5 -81.5v-23h90v-96h-90v-534h-110v534h-89v96h89v31q0 78 49.5 131t166.5 76q91 18 272 28
t439 10q234 0 422.5 -9t279.5 -27q88 -18 137 -49q47 39 125 39h30z" />
    <glyph glyph-name="uni093F0930094D.29" 
d="M2048 860v-97h-11q-46 0 -69.5 -17t-23.5 -49q0 -16 5 -38h-89q-11 38 -11 67v7q-8 29 -108 46q-157 33 -688 33h-63q-229 0 -409 -9t-252 -23q-74 -15 -107 -47.5t-33 -82.5v-20h90v-96h-90v-534h-110v534h-89v96h89v29q0 78 49.5 131.5t168.5 76.5q93 18 279.5 28.5
t453.5 10.5q243 0 437 -9t287 -28q89 -18 138 -49q46 40 126 40h30z" />
    <glyph glyph-name="uni093F0930094D.30" 
d="M2096 860v-97h-11q-46 0 -69.5 -17t-23.5 -49q0 -16 5 -38h-89q-11 38 -11 67v6q-4 14 -29.5 25t-79.5 21q-160 34 -711 34h-64q-237 0 -422 -9t-259 -24q-76 -16 -109.5 -48.5t-33.5 -82.5v-18h90v-96h-90v-534h-110v534h-89v96h89v26q0 79 50 132.5t171 77.5
q96 19 288.5 29.5t466.5 10.5q247 0 448 -9.5t297 -28.5q91 -18 139 -49q47 41 127 41h30z" />
    <glyph glyph-name="uni093F0930094D0901.01" 
d="M610 749v-8h-2q-1 -6 -1 -20q0 -32 6 -62h-89q-11 38 -11 67q0 9 1 14q-6 52 -69 69q-24 7 -80 7h-22q-53 0 -81 -6q-37 -9 -55 -30.5t-18 -63.5v-86h90v-96h-90v-534h-110v534h-89v96h89v93q0 72 41 114.5t114 57.5q50 11 117 11q64 0 114 -9q65 -15 102 -51
q45 35 105 35h19v-83h-22q-48 0 -59 -49zM773 719h-63v63h63v-63zM854 734q0 -44 -26 -67.5t-87 -23.5q-114 0 -114 91h58q0 -25 12 -35.5t44 -10.5q33 0 44 10t11 36h58z" />
    <glyph glyph-name="uni093F0930094D0901.02" 
d="M658 749v-8h-2q-1 -6 -1 -20q0 -32 6 -62h-89q-11 38 -11 67v4v0q0 30 -18 49t-52 29q-32 8 -102 8h-23q-64 0 -101 -7q-39 -8 -57.5 -30.5t-18.5 -64.5v-84h90v-96h-90v-534h-110v534h-89v96h89v90q0 73 41.5 116t115.5 58q54 12 139 12q83 0 136 -10q65 -15 104 -51
q42 36 105 36h19v-83h-22q-48 0 -59 -49zM821 719h-63v63h63v-63zM902 734q0 -44 -26 -67.5t-87 -23.5q-114 0 -114 91h58q0 -25 12 -35.5t44 -10.5q33 0 44 10t11 36h58z" />
    <glyph glyph-name="uni093F0930094D0901.03" 
d="M706 749v-9h-2q-1 -6 -1 -19q0 -32 6 -62h-89q-11 38 -11 67v4v0q0 30 -18 48.5t-54 28.5q-34 9 -123 9h-24q-85 0 -123 -8q-40 -9 -59 -31.5t-19 -64.5v-82h90v-96h-90v-534h-110v534h-89v96h89v88q0 72 41.5 116t118.5 59q62 13 160 13q101 0 158 -11q65 -15 105 -50
q42 36 106 36h19v-83h-22q-48 0 -59 -49zM869 719h-63v63h63v-63zM950 734q0 -44 -26 -67.5t-87 -23.5q-114 0 -114 91h58q0 -25 12 -35.5t44 -10.5q33 0 44 10t11 36h58z" />
    <glyph glyph-name="uni093F0930094D0901.04" 
d="M753 749v-9h-2q-1 -6 -1 -19q0 -32 6 -62h-89q-11 38 -11 67v13q-4 48 -72 67q-39 10 -146 10h-25q-96 0 -143 -9q-42 -9 -61.5 -32t-19.5 -66v-79h90v-96h-90v-534h-110v534h-89v96h89v86q0 73 42 117t120 59q65 14 183 14q121 0 179 -12q70 -17 105 -50q45 37 107 37
h19v-83h-22q-48 0 -59 -49zM916 719h-63v63h63v-63zM997 734q0 -44 -26 -67.5t-87 -23.5q-114 0 -114 91h58q0 -25 12 -35.5t44 -10.5q33 0 44 10t11 36h58z" />
    <glyph glyph-name="uni093F0930094D0901.05" 
d="M801 749v-9h-2q-1 -6 -1 -19q0 -32 6 -62h-89q-11 38 -11 67v13q-6 47 -74 66q-46 11 -167 11h-27q-116 0 -164 -10q-43 -9 -63 -32.5t-20 -66.5v-77h90v-96h-90v-534h-110v534h-89v96h89v83q0 145 164 178q68 15 205 15q139 0 201 -13q70 -17 106 -50q44 38 108 38h19
v-83h-22q-48 0 -59 -49zM964 719h-63v63h63v-63zM1045 734q0 -44 -26 -67.5t-87 -23.5q-114 0 -114 91h58q0 -25 12 -35.5t44 -10.5q33 0 44 10t11 36h58z" />
    <glyph glyph-name="uni093F0930094D0901.06" 
d="M868 785.5q-15 -12.5 -20 -36.5v-10h-2q-1 -6 -1 -18q0 -32 6 -62h-89q-11 38 -11 67v13q-3 25 -21.5 40.5t-53.5 24.5q-48 12 -188 12h-29q-60 0 -110 -3t-75 -8q-44 -10 -64.5 -33.5t-20.5 -67.5v-74h90v-96h-90v-534h-110v534h-89v96h89v81q0 73 42.5 118t123.5 61
q77 16 227 16t223 -14q70 -17 107 -49q44 38 108 38h19v-83h-22q-24 0 -39 -12.5zM1011 719h-63v63h63v-63zM1092 734q0 -44 -26 -67.5t-87 -23.5q-114 0 -114 91h58q0 -25 12 -35.5t44 -10.5q33 0 44 10t11 36h58z" />
    <glyph glyph-name="uni093F0930094D0901.07" 
d="M916 785.5q-15 -12.5 -20 -36.5v-10h-2q-1 -6 -1 -18q0 -32 6 -62h-89q-11 38 -11 67v12q-3 25 -21.5 40.5t-54.5 24.5q-54 12 -211 12h-30q-150 0 -205 -11q-45 -10 -66.5 -34.5t-21.5 -67.5v-72h90v-96h-90v-534h-110v534h-89v96h89v79q0 146 169 180q79 17 248 17
q170 0 245 -15q70 -17 108 -49q44 39 109 39h19v-83h-22q-24 0 -39 -12.5zM1059 719h-63v63h63v-63zM1140 734q0 -44 -26 -67.5t-87 -23.5q-114 0 -114 91h58q0 -25 12 -35.5t44 -10.5q33 0 44 10t11 36h58z" />
    <glyph glyph-name="uni093F0930094D0901.08" 
d="M944 749v-11h-2q-1 -5 -1 -17q0 -32 6 -62h-89q-11 38 -11 67v12q-3 24 -22 39.5t-56 24.5q-56 13 -232 13h-32q-75 0 -136 -3.5t-90 -8.5q-47 -11 -68.5 -35.5t-21.5 -67.5v-70h90v-96h-90v-534h-110v534h-89v96h89v77q0 73 43.5 118.5t127.5 62.5q88 18 271 18
q187 0 266 -16q70 -16 109 -48q46 39 110 39h19v-83h-22q-48 0 -59 -49zM1107 719h-63v63h63v-63zM1188 734q0 -44 -26 -67.5t-87 -23.5q-114 0 -114 91h58q0 -25 12 -35.5t44 -10.5q33 0 44 10t11 36h58z" />
    <glyph glyph-name="uni093F0930094D0901.09" 
d="M991 744v-6h-1q-1 -5 -1 -17q0 -32 6 -62h-89q-11 38 -11 67v12q-3 24 -23 39t-57 23q-63 15 -254 15h-33q-83 0 -149.5 -3.5t-96.5 -9.5q-48 -11 -70.5 -36t-22.5 -69v-67h90v-96h-90v-534h-110v534h-89v96h89v74q0 148 173 183q92 19 293 19q206 0 288 -17
q71 -16 110 -48q21 19 49.5 29.5t61.5 10.5h19v-83h-22q-51 0 -60 -54zM1155 719h-63v63h63v-63zM1236 734q0 -44 -26 -67.5t-87 -23.5q-114 0 -114 91h58q0 -25 12 -35.5t44 -10.5q33 0 44 10t11 36h58z" />
    <glyph glyph-name="uni093F0930094D0901.10" 
d="M1059 785.5q-15 -12.5 -20 -36.5v-11h-2q-1 -5 -1 -17q0 -32 6 -62h-89q-11 38 -11 67v12q-6 44 -81 61q-65 16 -275 16h-35q-90 0 -162 -4t-105 -11q-50 -11 -72.5 -36t-22.5 -69v-65h90v-96h-90v-534h-110v534h-89v96h89v72q0 74 44 120.5t131 63.5q94 20 315 20
q98 0 182 -4.5t128 -13.5q74 -17 111 -47q45 40 111 40h19v-83h-22q-24 0 -39 -12.5zM1202 719h-63v63h63v-63zM1283 734q0 -44 -26 -67.5t-87 -23.5q-114 0 -114 91h58q0 -25 12 -35.5t44 -10.5q33 0 44 10t11 36h58z" />
    <glyph glyph-name="uni093F0930094D0901.11" 
d="M1087 748v-11h-2q-1 -5 -1 -16q0 -32 6 -62h-89q-11 38 -11 67v12q-3 22 -23 36.5t-59 23.5q-74 17 -298 17h-36q-99 0 -176.5 -4.5t-111.5 -11.5q-50 -10 -73.5 -36t-23.5 -70v-63h90v-96h-90v-534h-110v534h-89v96h89v70q0 149 178 185q103 21 336 21q106 0 195.5 -5
t137.5 -14q71 -16 111 -47q44 41 112 41h19v-83h-22q-50 0 -59 -50zM1250 719h-63v63h63v-63zM1331 734q0 -44 -26 -67.5t-87 -23.5q-114 0 -114 91h58q0 -25 12 -35.5t44 -10.5q33 0 44 10t11 36h58z" />
    <glyph glyph-name="uni093F0930094D0901.12" 
d="M1134 744v-7h-1q-1 -5 -1 -16q0 -32 6 -62h-89q-11 38 -11 67v11q-3 22 -23.5 36.5t-60.5 23.5q-76 18 -319 18h-38q-104 0 -188 -4.5t-120 -12.5q-52 -11 -76 -37t-24 -71v-60h90v-96h-90v-534h-110v534h-89v96h89v67q0 150 180 187q105 22 359 22q114 0 209.5 -5
t144.5 -15q72 -16 112 -47q45 42 113 42h19v-83h-22q-51 0 -60 -54zM1298 719h-63v63h63v-63zM1379 734q0 -44 -26 -67.5t-87 -23.5q-114 0 -114 91h58q0 -25 12 -35.5t44 -10.5q33 0 44 10t11 36h58z" />
    <glyph glyph-name="uni093F0930094D0901.13" 
d="M1182 744v-7h-1q-1 -5 -1 -16q0 -32 6 -62h-89q-11 38 -11 67v2v0q0 25 -21 41.5t-65 26.5q-86 19 -340 19h-40q-113 0 -202 -5t-127 -13q-53 -11 -77.5 -37.5t-24.5 -71.5v-58h90v-96h-90v-534h-110v534h-89v96h89v65q0 152 182 188q115 23 381 23q274 0 376 -21
q72 -16 114 -47q45 43 113 43h19v-83h-22q-51 0 -60 -54zM1346 719h-63v63h63v-63zM1427 734q0 -44 -26 -67.5t-87 -23.5q-114 0 -114 91h58q0 -25 12 -35.5t44 -10.5q33 0 44 10t11 36h58z" />
    <glyph glyph-name="uni093F0930094D0901.14" 
d="M1229 738v-2v0q-1 -5 -1 -15q0 -32 6 -62h-89q-11 38 -11 67v2v0q0 25 -21 41t-66 26q-85 19 -363 19h-40q-121 0 -215.5 -5t-135.5 -13q-54 -12 -79 -38.5t-25 -71.5v-56h90v-96h-90v-534h-110v534h-89v96h89v63q0 151 184 189q118 24 403 24q128 0 235 -5.5t163 -16.5
q74 -16 114 -47q44 44 115 44h19v-83h-22q-53 0 -61 -60zM1394 719h-63v63h63v-63zM1475 734q0 -44 -26 -67.5t-87 -23.5q-114 0 -114 91h58q0 -25 12 -35.5t44 -10.5q33 0 44 10t11 36h58z" />
    <glyph glyph-name="uni093F0930094D0901.15" 
d="M1277 738v-2v0q-1 -5 -1 -15q0 -32 6 -62h-89q-11 38 -11 67v2v0q0 25 -21.5 40.5t-67.5 25.5q-87 20 -384 20h-42q-129 0 -229 -5t-142 -14q-56 -12 -81.5 -39t-25.5 -73v-53h90v-96h-90v-534h-110v534h-89v96h89v61q0 153 187 190q127 25 425 25q135 0 248.5 -6
t170.5 -17q74 -16 116 -47q21 21 50.5 33t64.5 12h19v-83h-22q-53 0 -61 -60zM1442 719h-63v63h63v-63zM1523 734q0 -44 -26 -67.5t-87 -23.5q-114 0 -114 91h58q0 -25 12 -35.5t44 -10.5q33 0 44 10t11 36h58z" />
    <glyph glyph-name="uni093F0930094D0901.16" 
d="M1324 748q1 -5 1 -13h-2q-1 -5 -1 -14q0 -32 6 -62h-89q-11 38 -11 67q0 9 1 14q-10 37 -90 53q-96 21 -406 21h-43q-134 0 -240.5 -5.5t-151.5 -14.5q-57 -12 -83 -39.5t-26 -73.5v-51h90v-96h-90v-534h-110v534h-89v96h89v58q0 154 189 192q130 26 447 26
q144 0 262.5 -6t178.5 -18q76 -16 116 -46q21 21 50.5 33t64.5 12h19v-83h-22q-49 0 -60 -50zM1488 719h-63v63h63v-63zM1569 734q0 -44 -26 -67.5t-87 -23.5q-114 0 -114 91h58q0 -25 12 -35.5t44 -10.5q33 0 44 10t11 36h58z" />
    <glyph glyph-name="uni093F0930094D0901.17" 
d="M1372 744v-9h-1q-1 -5 -1 -14q0 -32 6 -62h-89q-11 38 -11 67v10q-3 20 -24.5 33.5t-65.5 22.5q-98 22 -428 22h-45q-140 0 -252 -6t-160 -15q-59 -13 -85.5 -40.5t-26.5 -73.5v-49h90v-96h-90v-534h-110v534h-89v96h89v56q0 155 191 193q132 27 469 27q153 0 276.5 -6
t186.5 -19q74 -16 117 -46q44 46 116 46h19v-83h-22q-51 0 -60 -54zM1536 719h-63v63h63v-63zM1617 734q0 -44 -26 -67.5t-87 -23.5q-114 0 -114 91h58q0 -25 12 -35.5t44 -10.5q33 0 44 10t11 36h58z" />
    <glyph glyph-name="uni093F0930094D0901.18" 
d="M1420 744v-9h-1q-1 -5 -1 -14q0 -32 6 -62h-89q-11 38 -11 67v10q-3 19 -25.5 32.5t-66.5 22.5q-107 23 -450 23h-46q-148 0 -266 -6t-167 -16q-60 -13 -87 -41t-27 -75v-46h90v-96h-90v-534h-110v534h-89v96h89v54q0 75 46.5 124.5t146.5 69.5q142 28 491 28
q157 0 288.5 -6.5t196.5 -19.5q74 -16 118 -45q21 22 51 34t66 12h19v-83h-22q-51 0 -60 -54zM1584 719h-63v63h63v-63zM1665 734q0 -44 -26 -67.5t-87 -23.5q-114 0 -114 91h58q0 -25 12 -35.5t44 -10.5q33 0 44 10t11 36h58z" />
    <glyph glyph-name="uni093F0930094D0901.19" 
d="M1486.5 782.5q-15.5 -15.5 -18.5 -44.5v-4v0q-1 -4 -1 -13q0 -32 6 -62h-89q-11 38 -11 67v1v0q0 23 -22.5 38t-72.5 25q-109 24 -471 24h-48q-153 0 -277.5 -6.5t-176.5 -16.5q-61 -13 -88.5 -41.5t-27.5 -75.5v-44h90v-96h-90v-534h-110v534h-89v96h89v51q0 76 47 126
t149 70q143 29 513 29q166 0 302 -6.5t204 -20.5q75 -16 120 -46q21 23 51.5 35.5t66.5 12.5h19v-83h-22q-27 0 -42.5 -15.5zM1633 719h-63v63h63v-63zM1714 734q0 -44 -26 -67.5t-87 -23.5q-114 0 -114 91h58q0 -25 12 -35.5t44 -10.5q33 0 44 10t11 36h58z" />
    <glyph glyph-name="uni093F0930094D0901.20" 
d="M1533.5 782.5q-15.5 -15.5 -18.5 -44.5v-4v0q-1 -4 -1 -13q0 -32 6 -62h-89q-11 38 -11 67v9q-4 19 -26.5 31.5t-68.5 22.5q-120 25 -493 25h-50q-162 0 -291.5 -6.5t-182.5 -17.5q-63 -13 -91 -42t-28 -77v-41h90v-96h-90v-534h-110v534h-89v96h89v49q0 76 47 126
t151 71q71 14 208 22t327 8q174 0 316 -7t212 -21q78 -18 120 -46q21 23 52 36t67 13h19v-83h-22q-27 0 -42.5 -15.5zM1680 719h-63v63h63v-63zM1761 734q0 -44 -26 -67.5t-87 -23.5q-114 0 -114 91h58q0 -25 12 -35.5t44 -10.5q33 0 44 10t11 36h58z" />
    <glyph glyph-name="uni093F0930094D0901.21" 
d="M1581.5 782.5q-15.5 -15.5 -18.5 -44.5v-4v0q-1 -4 -1 -13q0 -32 6 -62h-89q-11 38 -11 67v1v0q0 22 -22.5 36.5t-74.5 24.5q-118 25 -515 25h-51q-169 0 -304.5 -6.5t-190.5 -17.5q-64 -14 -92.5 -43t-28.5 -77v-39h90v-96h-90v-534h-110v534h-89v96h89v47
q0 76 47.5 126.5t152.5 71.5q157 31 557 31q183 0 330.5 -7t219.5 -22q78 -17 121 -45q46 49 120 49h19v-83h-22q-27 0 -42.5 -15.5zM1728 719h-63v63h63v-63zM1809 734q0 -44 -26 -67.5t-87 -23.5q-114 0 -114 91h58q0 -25 12 -35.5t44 -10.5q33 0 44 10t11 36h58z" />
    <glyph glyph-name="uni093F0930094D0901.22" 
d="M1630.5 783.5q-15.5 -14.5 -19.5 -40.5v-10h-2v-12q0 -32 6 -62h-89q-11 38 -11 67v9q-4 17 -27 29.5t-71 22.5q-127 26 -536 26h-53q-178 0 -318.5 -7t-196.5 -18q-66 -14 -95 -43.5t-29 -77.5v-37h90v-96h-90v-534h-110v534h-89v96h89v45q0 76 47.5 126.5t154.5 72.5
q158 32 579 32q188 0 342 -7.5t230 -22.5q78 -16 122 -44q22 23 52.5 36t67.5 13h19v-83h-22q-25 0 -40.5 -14.5zM1775 719h-63v63h63v-63zM1856 734q0 -44 -26 -67.5t-87 -23.5q-114 0 -114 91h58q0 -25 12 -35.5t44 -10.5q33 0 44 10t11 36h58z" />
    <glyph glyph-name="uni093F0930094D0901.23" 
d="M1676.5 782.5q-15.5 -15.5 -18.5 -44.5v-5h-1v-12q0 -32 6 -62h-89q-11 38 -11 67v8q-4 17 -27.5 29.5t-71.5 21.5q-128 28 -559 28h-54q-184 0 -330 -7.5t-206 -19.5q-67 -14 -96.5 -43.5t-29.5 -78.5v-34h90v-96h-90v-534h-110v534h-89v96h89v42q0 77 48 128t157 73
q78 15 231.5 24t369.5 9q196 0 355.5 -7.5t237.5 -23.5q80 -18 123 -45q21 24 52.5 37.5t68.5 13.5h19v-83h-22q-27 0 -42.5 -15.5zM1823 719h-63v63h63v-63zM1904 734q0 -44 -26 -67.5t-87 -23.5q-114 0 -114 91h58q0 -25 12 -35.5t44 -10.5q33 0 44 10t11 36h58z" />
    <glyph glyph-name="uni093F0930094D0901.24" 
d="M1724.5 782.5q-15.5 -15.5 -18.5 -44.5v-6h-1v-11q0 -32 6 -62h-89q-11 38 -11 67v8q-4 17 -28 29t-73 21q-129 29 -580 29h-56q-193 0 -344 -7.5t-213 -20.5q-68 -14 -98 -44t-30 -79v-32h90v-96h-90v-534h-110v534h-89v96h89v40q0 77 48 128.5t159 73.5q170 34 623 34
q204 0 369.5 -8t245.5 -24q82 -18 124 -45q21 25 52.5 38.5t69.5 13.5h19v-83h-22q-27 0 -42.5 -15.5zM1871 719h-63v63h63v-63zM1952 734q0 -44 -26 -67.5t-87 -23.5q-114 0 -114 91h58q0 -25 12 -35.5t44 -10.5q33 0 44 10t11 36h58z" />
    <glyph glyph-name="uni093F0930094D0901.25" 
d="M1769 778q-16 -20 -16 -57q0 -32 6 -62h-89q-11 38 -11 67v1v0q0 19 -24 32.5t-79 23.5q-138 30 -601 30h-57q-199 0 -356.5 -8t-221.5 -21q-70 -15 -100.5 -45t-30.5 -79v-30h90v-96h-90v-534h-110v534h-89v96h89v38q0 77 48.5 129t160.5 74q84 16 248.5 25.5t396.5 9.5
q213 0 383.5 -8t253.5 -25q83 -18 125 -45q22 25 53.5 39t69.5 14h19v-83h-22q-30 0 -46 -20zM1919 719h-63v63h63v-63zM2000 734q0 -44 -26 -67.5t-87 -23.5q-114 0 -114 91h58q0 -25 12 -35.5t44 -10.5q33 0 44 10t11 36h58z" />
    <glyph glyph-name="uni093F0930094D0901.26" 
d="M1819.5 782q-15.5 -16 -18.5 -45v-5h-1v-11q0 -32 6 -62h-89q-11 38 -11 67v7q-8 32 -103 49q-142 31 -624 31h-58q-207 0 -370 -8t-229 -22q-70 -15 -101.5 -45.5t-31.5 -80.5v-27h90v-96h-90v-534h-110v534h-89v96h89v35q0 78 49 130t163 75q86 17 255.5 26.5
t410.5 9.5q218 0 395.5 -8.5t263.5 -25.5q80 -17 126 -44q21 25 53 39t70 14h19v-83h-22q-27 0 -42.5 -16zM1966 719h-63v63h63v-63zM2047 734q0 -44 -26 -67.5t-87 -23.5q-114 0 -114 91h58q0 -25 12 -35.5t44 -10.5q33 0 44 10t11 36h58z" />
    <glyph glyph-name="uni093F0930094D0901.27" 
d="M1867.5 782q-15.5 -16 -18.5 -45v-6h-1v-10q0 -32 6 -62h-89q-11 38 -11 67v7q-4 16 -29 27.5t-76 20.5q-151 32 -645 32h-60q-212 0 -381.5 -8.5t-237.5 -22.5q-73 -15 -104.5 -46t-31.5 -81v-25h90v-96h-90v-534h-110v534h-89v96h89v33q0 78 49 130.5t165 75.5
q89 17 265 27t424 10q225 0 408.5 -8.5t271.5 -26.5q81 -17 127 -44q21 26 53 40t71 14h19v-83h-22q-27 0 -42.5 -16zM2014 719h-63v63h63v-63zM2095 734q0 -44 -26 -67.5t-87 -23.5q-114 0 -114 91h58q0 -25 12 -35.5t44 -10.5q33 0 44 10t11 36h58z" />
    <glyph glyph-name="uni093F0930094D0901.28" 
d="M1914.5 782q-15.5 -16 -18.5 -45v-6h-1v-10q0 -32 6 -62h-89q-11 38 -11 67v9q-11 30 -106 45q-153 33 -667 33h-61q-221 0 -395.5 -9t-244.5 -23q-73 -15 -105.5 -46.5t-32.5 -81.5v-23h90v-96h-90v-534h-110v534h-89v96h89v31q0 78 49.5 131t166.5 76q91 18 272 28
t439 10q234 0 422.5 -9t279.5 -27q86 -18 128 -44q21 26 53.5 40.5t70.5 14.5h19v-83h-22q-27 0 -42.5 -16zM2061 719h-63v63h63v-63zM2142 734q0 -44 -26 -67.5t-87 -23.5q-114 0 -114 91h58q0 -25 12 -35.5t44 -10.5q33 0 44 10t11 36h58z" />
    <glyph glyph-name="uni093F0930094D0901.29" 
d="M1962.5 782q-15.5 -16 -18.5 -45v-7h-1v-9q0 -32 6 -62h-89q-11 38 -11 67v7q-8 29 -108 46q-157 33 -688 33h-63q-229 0 -409 -9t-252 -23q-74 -15 -107 -47.5t-33 -82.5v-20h90v-96h-90v-534h-110v534h-89v96h89v29q0 78 49.5 131.5t168.5 76.5q93 18 279.5 28.5
t453.5 10.5q243 0 437 -9t287 -28q86 -18 129 -43q21 26 53.5 40.5t71.5 14.5h19v-83h-22q-27 0 -42.5 -16zM2109 719h-63v63h63v-63zM2190 734q0 -44 -26 -67.5t-87 -23.5q-114 0 -114 91h58q0 -25 12 -35.5t44 -10.5q33 0 44 10t11 36h58z" />
    <glyph glyph-name="uni093F0930094D0901.30" 
d="M2010.5 782q-15.5 -16 -18.5 -45v-7h-1v-9q0 -32 6 -62h-89q-11 38 -11 67v6q-4 14 -29.5 25t-79.5 21q-160 34 -711 34h-64q-237 0 -422 -9t-259 -24q-76 -16 -109.5 -48.5t-33.5 -82.5v-18h90v-96h-90v-534h-110v534h-89v96h89v26q0 79 50 132.5t171 77.5
q96 19 288.5 29.5t466.5 10.5q247 0 448 -9.5t297 -28.5q82 -17 130 -44q21 27 54 42t72 15h19v-83h-22q-27 0 -42.5 -16zM2157 719h-63v63h63v-63zM2238 734q0 -44 -26 -67.5t-87 -23.5q-114 0 -114 91h58q0 -25 12 -35.5t44 -10.5q33 0 44 10t11 36h58z" />
    <glyph glyph-name="uni093F0930094D0902.01" 
d="M622.5 759.5q-15.5 -17.5 -15.5 -49.5q0 -25 6 -51h-89q-11 38 -11 67q0 9 1 13q-6 53 -69 70q-24 7 -80 7h-22q-53 0 -81 -6q-37 -9 -55 -30.5t-18 -63.5v-86h90v-96h-90v-534h-110v534h-89v96h89v93q0 72 41 114.5t114 57.5q50 11 117 11q64 0 114 -9q76 -19 112 -62
q44 25 105 25h30v-83h-43q-31 0 -46.5 -17.5zM755 754v-94h-94v94h94z" />
    <glyph glyph-name="uni093F0930094D0902.02" 
d="M670.5 759.5q-15.5 -17.5 -15.5 -49.5q0 -25 6 -51h-89q-11 38 -11 67v4v0q0 30 -18 49t-52 29q-32 8 -102 8h-23q-64 0 -101 -7q-39 -8 -57.5 -30.5t-18.5 -64.5v-84h90v-96h-90v-534h-110v534h-89v96h89v90q0 73 41.5 116t115.5 58q54 12 139 12q83 0 136 -10
q76 -19 114 -61q44 25 105 25h30v-83h-43q-31 0 -46.5 -17.5zM803 754v-94h-94v94h94z" />
    <glyph glyph-name="uni093F0930094D0902.03" 
d="M718.5 759.5q-15.5 -17.5 -15.5 -49.5q0 -25 6 -51h-89q-11 38 -11 67v4v0q0 30 -18 48.5t-54 28.5q-34 9 -123 9h-24q-85 0 -123 -8q-40 -9 -59 -31.5t-19 -64.5v-82h90v-96h-90v-534h-110v534h-89v96h89v88q0 72 41.5 116t118.5 59q62 13 160 13q101 0 158 -11
q77 -18 115 -61q43 26 106 26h30v-83h-43q-31 0 -46.5 -17.5zM851 754v-94h-94v94h94z" />
    <glyph glyph-name="uni093F0930094D0902.04" 
d="M765.5 759.5q-15.5 -17.5 -15.5 -49.5q0 -25 6 -51h-89q-11 38 -11 67q0 8 1 13q-6 48 -73 67q-39 10 -146 10h-25q-96 0 -143 -9q-42 -9 -61.5 -32t-19.5 -66v-79h90v-96h-90v-534h-110v534h-89v96h89v86q0 73 42 117t120 59q65 14 183 14q121 0 179 -12q77 -18 116 -60
q43 26 106 26h30v-83h-43q-31 0 -46.5 -17.5zM898 754v-94h-94v94h94z" />
    <glyph glyph-name="uni093F0930094D0902.05" 
d="M813.5 759.5q-15.5 -17.5 -15.5 -49.5q0 -25 6 -51h-89q-11 38 -11 67q0 8 1 12q-5 48 -75 67q-46 11 -167 11h-27q-116 0 -164 -10q-43 -9 -63 -32.5t-20 -66.5v-77h90v-96h-90v-534h-110v534h-89v96h89v83q0 145 164 178q68 15 205 15q139 0 201 -13q78 -18 117 -59
q43 26 107 26h30v-83h-43q-31 0 -46.5 -17.5zM946 754v-94h-94v94h94z" />
    <glyph glyph-name="uni093F0930094D0902.06" 
d="M860.5 759.5q-15.5 -17.5 -15.5 -49.5q0 -25 6 -51h-89q-11 38 -11 67q0 8 1 12q-3 25 -22 41t-54 25q-48 12 -188 12h-29q-60 0 -110 -3t-75 -8q-44 -10 -64.5 -33.5t-20.5 -67.5v-74h90v-96h-90v-534h-110v534h-89v96h89v81q0 73 42.5 118t123.5 61q77 16 227 16
t223 -14q81 -19 117 -59q44 27 108 27h30v-83h-43q-31 0 -46.5 -17.5zM993 754v-94h-94v94h94z" />
    <glyph glyph-name="uni093F0930094D0902.07" 
d="M908.5 759.5q-15.5 -17.5 -15.5 -49.5q0 -25 6 -51h-89q-11 38 -11 67q0 8 1 12q-6 46 -77 65q-54 12 -211 12h-30q-150 0 -205 -11q-45 -10 -66.5 -34.5t-21.5 -67.5v-72h90v-96h-90v-534h-110v534h-89v96h89v79q0 146 169 180q79 17 248 17q170 0 245 -15
q79 -18 119 -58q44 27 108 27h30v-83h-43q-31 0 -46.5 -17.5zM1041 754v-94h-94v94h94z" />
    <glyph glyph-name="uni093F0930094D0902.08" 
d="M956.5 759.5q-15.5 -17.5 -15.5 -49.5q0 -25 6 -51h-89q-11 38 -11 67v12q-4 46 -78 64q-56 13 -232 13h-32q-75 0 -136 -3.5t-90 -8.5q-47 -11 -68.5 -35.5t-21.5 -67.5v-70h90v-96h-90v-534h-110v534h-89v96h89v77q0 73 43.5 118.5t127.5 62.5q88 18 271 18
q187 0 266 -16q80 -18 120 -58q44 28 109 28h30v-83h-43q-31 0 -46.5 -17.5zM1089 754v-94h-94v94h94z" />
    <glyph glyph-name="uni093F0930094D0902.09" 
d="M1004.5 759.5q-15.5 -17.5 -15.5 -49.5q0 -25 6 -51h-89q-11 38 -11 67v12q-4 45 -80 62q-63 15 -254 15h-33q-83 0 -149.5 -3.5t-96.5 -9.5q-48 -11 -70.5 -36t-22.5 -69v-67h90v-96h-90v-534h-110v534h-89v96h89v74q0 148 173 183q92 19 293 19q206 0 288 -17
q80 -18 121 -57q44 28 110 28h30v-83h-43q-31 0 -46.5 -17.5zM1137 754v-94h-94v94h94z" />
    <glyph glyph-name="uni093F0930094D0902.10" 
d="M1051.5 759.5q-15.5 -17.5 -15.5 -49.5q0 -25 6 -51h-89q-11 38 -11 67v11q-6 46 -81 62q-65 16 -275 16h-35q-90 0 -162 -4t-105 -11q-50 -11 -72.5 -36t-22.5 -69v-65h90v-96h-90v-534h-110v534h-89v96h89v72q0 74 44 120.5t131 63.5q94 20 315 20q98 0 182 -4.5
t128 -13.5q81 -18 121 -56q45 28 111 28h30v-83h-43q-31 0 -46.5 -17.5zM1184 754v-94h-94v94h94z" />
    <glyph glyph-name="uni093F0930094D0902.11" 
d="M1099.5 759.5q-15.5 -17.5 -15.5 -49.5q0 -25 6 -51h-89q-11 38 -11 67v11q-3 22 -23 37t-59 24q-74 17 -298 17h-36q-99 0 -176.5 -4.5t-111.5 -11.5q-50 -10 -73.5 -36t-23.5 -70v-63h90v-96h-90v-534h-110v534h-89v96h89v70q0 149 178 185q103 21 336 21
q106 0 195.5 -5t137.5 -14q82 -18 121 -56q44 29 112 29h30v-83h-43q-31 0 -46.5 -17.5zM1232 754v-94h-94v94h94z" />
    <glyph glyph-name="uni093F0930094D0902.12" 
d="M1147.5 759.5q-15.5 -17.5 -15.5 -49.5q0 -25 6 -51h-89q-11 38 -11 67v11q-3 22 -23.5 36.5t-60.5 23.5q-76 18 -319 18h-38q-104 0 -188 -4.5t-120 -12.5q-52 -11 -76 -37t-24 -71v-60h90v-96h-90v-534h-110v534h-89v96h89v67q0 150 180 187q105 22 359 22
q114 0 209.5 -5t144.5 -15q81 -17 123 -56q46 30 112 30h30v-83h-43q-31 0 -46.5 -17.5zM1280 754v-94h-94v94h94z" />
    <glyph glyph-name="uni093F0930094D0902.13" 
d="M1195.5 759.5q-15.5 -17.5 -15.5 -49.5q0 -25 6 -51h-89q-11 38 -11 67v2v0q0 25 -21 41.5t-65 26.5q-86 19 -340 19h-40q-113 0 -202 -5t-127 -13q-53 -11 -77.5 -37.5t-24.5 -71.5v-58h90v-96h-90v-534h-110v534h-89v96h89v65q0 152 182 188q115 23 381 23
q274 0 376 -21q82 -18 124 -55q46 30 113 30h30v-83h-43q-31 0 -46.5 -17.5zM1328 754v-94h-94v94h94z" />
    <glyph glyph-name="uni093F0930094D0902.14" 
d="M1243.5 759.5q-15.5 -17.5 -15.5 -49.5q0 -25 6 -51h-89q-11 38 -11 67v2v0q0 25 -21 41t-66 26q-85 19 -363 19h-40q-121 0 -215.5 -5t-135.5 -13q-54 -12 -79 -38.5t-25 -71.5v-56h90v-96h-90v-534h-110v534h-89v96h89v63q0 151 184 189q118 24 403 24q128 0 235 -5.5
t163 -16.5q86 -20 124 -55q47 31 115 31h30v-83h-43q-31 0 -46.5 -17.5zM1376 754v-94h-94v94h94z" />
    <glyph glyph-name="uni093F0930094D0902.15" 
d="M1291.5 759.5q-15.5 -17.5 -15.5 -49.5q0 -25 6 -51h-89q-11 38 -11 67v2v0q0 25 -21.5 40.5t-67.5 25.5q-87 20 -384 20h-42q-129 0 -229 -5t-142 -14q-56 -12 -81.5 -39t-25.5 -73v-53h90v-96h-90v-534h-110v534h-89v96h89v61q0 153 187 190q127 25 425 25
q135 0 248.5 -6t170.5 -17q86 -20 126 -55q44 32 115 32h30v-83h-43q-31 0 -46.5 -17.5zM1424 754v-94h-94v94h94z" />
    <glyph glyph-name="uni093F0930094D0902.16" 
d="M1325 735v0q-3 -10 -3 -25q0 -25 6 -51h-89q-11 38 -11 67q0 9 1 14q-10 37 -90 53q-96 21 -406 21h-43q-134 0 -240.5 -5.5t-151.5 -14.5q-57 -12 -83 -39.5t-26 -73.5v-51h90v-96h-90v-534h-110v534h-89v96h89v58q0 154 189 192q130 26 447 26q144 0 262.5 -6
t178.5 -18q85 -18 126 -53q45 31 115 31h30v-83h-43q-48 0 -59 -42zM1470 754v-94h-94v94h94z" />
    <glyph glyph-name="uni093F0930094D0902.17" 
d="M1385.5 759.5q-15.5 -17.5 -15.5 -49.5q0 -25 6 -51h-89q-11 38 -11 67v10q-6 39 -90 56q-98 22 -428 22h-45q-140 0 -252 -6t-160 -15q-59 -13 -85.5 -40.5t-26.5 -73.5v-49h90v-96h-90v-534h-110v534h-89v96h89v56q0 155 191 193q132 27 469 27q153 0 276.5 -6
t186.5 -19q83 -19 127 -53q46 32 116 32h30v-83h-43q-31 0 -46.5 -17.5zM1518 754v-94h-94v94h94z" />
    <glyph glyph-name="uni093F0930094D0902.18" 
d="M1433.5 759.5q-15.5 -17.5 -15.5 -49.5q0 -25 6 -51h-89q-11 38 -11 67v10q-6 38 -92 55q-107 23 -450 23h-46q-148 0 -266 -6t-167 -16q-60 -13 -87 -41t-27 -75v-46h90v-96h-90v-534h-110v534h-89v96h89v54q0 75 46.5 124.5t146.5 69.5q142 28 491 28q157 0 288.5 -6.5
t196.5 -19.5q84 -19 128 -53q46 33 117 33h30v-83h-43q-31 0 -46.5 -17.5zM1566 754v-94h-94v94h94z" />
    <glyph glyph-name="uni093F0930094D0902.19" 
d="M1482.5 759.5q-15.5 -17.5 -15.5 -49.5q0 -25 6 -51h-89q-11 38 -11 67v1v0q0 23 -22.5 38t-72.5 25q-109 24 -471 24h-48q-153 0 -277.5 -6.5t-176.5 -16.5q-61 -13 -88.5 -41.5t-27.5 -75.5v-44h90v-96h-90v-534h-110v534h-89v96h89v51q0 76 47 126t149 70
q143 29 513 29q166 0 302 -6.5t204 -20.5q89 -19 130 -53q45 34 118 34h30v-83h-43q-31 0 -46.5 -17.5zM1615 754v-94h-94v94h94z" />
    <glyph glyph-name="uni093F0930094D0902.20" 
d="M1529.5 759.5q-15.5 -17.5 -15.5 -49.5q0 -25 6 -51h-89q-11 38 -11 67v9q-4 18 -26.5 31t-68.5 23q-120 25 -493 25h-50q-162 0 -291.5 -6.5t-182.5 -17.5q-63 -13 -91 -42t-28 -77v-41h90v-96h-90v-534h-110v534h-89v96h89v49q0 76 47 126t151 71q71 14 208 22t327 8
q174 0 316 -7t212 -21q86 -19 130 -53q44 35 119 35h30v-83h-43q-31 0 -46.5 -17.5zM1662 754v-94h-94v94h94z" />
    <glyph glyph-name="uni093F0930094D0902.21" 
d="M1577.5 759.5q-15.5 -17.5 -15.5 -49.5q0 -25 6 -51h-89q-11 38 -11 67v1v0q0 22 -22.5 36.5t-74.5 24.5q-118 25 -515 25h-51q-169 0 -304.5 -6.5t-190.5 -17.5q-64 -14 -92.5 -43t-28.5 -77v-39h90v-96h-90v-534h-110v534h-89v96h89v47q0 76 47.5 126.5t152.5 71.5
q157 31 557 31q183 0 330.5 -7t219.5 -22q87 -19 131 -52q48 35 120 35h30v-83h-43q-31 0 -46.5 -17.5zM1710 754v-94h-94v94h94z" />
    <glyph glyph-name="uni093F0930094D0902.22" 
d="M1624.5 759.5q-15.5 -17.5 -15.5 -49.5q0 -25 6 -51h-89q-11 38 -11 67v9q-4 17 -27 29.5t-71 22.5q-127 26 -536 26h-53q-178 0 -318.5 -7t-196.5 -18q-66 -14 -95 -43.5t-29 -77.5v-37h90v-96h-90v-534h-110v534h-89v96h89v45q0 76 47.5 126.5t154.5 72.5
q158 32 579 32q188 0 342 -7.5t230 -22.5q87 -19 132 -51q48 35 120 35h30v-83h-43q-31 0 -46.5 -17.5zM1757 754v-94h-94v94h94z" />
    <glyph glyph-name="uni093F0930094D0902.23" 
d="M1672.5 759.5q-15.5 -17.5 -15.5 -49.5q0 -25 6 -51h-89q-11 38 -11 67v8q-4 17 -27.5 29.5t-71.5 21.5q-128 28 -559 28h-54q-184 0 -330 -7.5t-206 -19.5q-67 -14 -96.5 -43.5t-29.5 -78.5v-34h90v-96h-90v-534h-110v534h-89v96h89v42q0 77 48 128t157 73
q78 15 231.5 24t369.5 9q196 0 355.5 -7.5t237.5 -23.5q88 -18 133 -51q22 17 53 26.5t68 9.5h30v-83h-43q-31 0 -46.5 -17.5zM1805 754v-94h-94v94h94z" />
    <glyph glyph-name="uni093F0930094D0902.24" 
d="M1720.5 759.5q-15.5 -17.5 -15.5 -49.5q0 -25 6 -51h-89q-11 38 -11 67v8q-4 17 -28 29t-73 21q-129 29 -580 29h-56q-193 0 -344 -7.5t-213 -20.5q-68 -14 -98 -44t-30 -79v-32h90v-96h-90v-534h-110v534h-89v96h89v40q0 77 48 128.5t159 73.5q170 34 623 34
q204 0 369.5 -8t245.5 -24q90 -19 133 -51q46 37 123 37h30v-83h-43q-31 0 -46.5 -17.5zM1853 754v-94h-94v94h94z" />
    <glyph glyph-name="uni093F0930094D0902.25" 
d="M1768.5 759.5q-15.5 -17.5 -15.5 -49.5q0 -25 6 -51h-89q-11 38 -11 67v1v0q0 19 -24 32.5t-79 23.5q-138 30 -601 30h-57q-199 0 -356.5 -8t-221.5 -21q-70 -15 -100.5 -45t-30.5 -79v-30h90v-96h-90v-534h-110v534h-89v96h89v38q0 77 48.5 129t160.5 74
q84 16 248.5 25.5t396.5 9.5q213 0 383.5 -8t253.5 -25q90 -19 135 -51q46 38 123 38h30v-83h-43q-31 0 -46.5 -17.5zM1901 754v-94h-94v94h94z" />
    <glyph glyph-name="uni093F0930094D0902.26" 
d="M1815.5 759.5q-15.5 -17.5 -15.5 -49.5q0 -25 6 -51h-89q-11 38 -11 67v7q-8 32 -103 49q-142 31 -624 31h-58q-207 0 -370 -8t-229 -22q-70 -15 -101.5 -45.5t-31.5 -80.5v-27h90v-96h-90v-534h-110v534h-89v96h89v35q0 78 49 130t163 75q86 17 255.5 26.5t410.5 9.5
q218 0 395.5 -8.5t263.5 -25.5q89 -18 135 -50q48 38 124 38h30v-83h-43q-31 0 -46.5 -17.5zM1948 754v-94h-94v94h94z" />
    <glyph glyph-name="uni093F0930094D0902.27" 
d="M1863.5 759.5q-15.5 -17.5 -15.5 -49.5q0 -25 6 -51h-89q-11 38 -11 67v7q-8 31 -105 48q-151 32 -645 32h-60q-212 0 -381.5 -8.5t-237.5 -22.5q-73 -15 -104.5 -46t-31.5 -81v-25h90v-96h-90v-534h-110v534h-89v96h89v33q0 78 49 130.5t165 75.5q89 17 265 27t424 10
q225 0 408.5 -8.5t271.5 -26.5q91 -19 136 -50q47 39 125 39h30v-83h-43q-31 0 -46.5 -17.5zM1996 754v-94h-94v94h94z" />
    <glyph glyph-name="uni093F0930094D0902.28" 
d="M1910.5 759.5q-15.5 -17.5 -15.5 -49.5q0 -25 6 -51h-89q-11 38 -11 67v9q-11 30 -106 45q-153 33 -667 33h-61q-221 0 -395.5 -9t-244.5 -23q-73 -15 -105.5 -46.5t-32.5 -81.5v-23h90v-96h-90v-534h-110v534h-89v96h89v31q0 78 49.5 131t166.5 76q91 18 272 28t439 10
q234 0 422.5 -9t279.5 -27q88 -18 137 -49q47 39 125 39h30v-83h-43q-31 0 -46.5 -17.5zM2043 754v-94h-94v94h94z" />
    <glyph glyph-name="uni093F0930094D0902.29" 
d="M1958.5 759.5q-15.5 -17.5 -15.5 -49.5q0 -25 6 -51h-89q-11 38 -11 67v7q-8 29 -108 46q-157 33 -688 33h-63q-229 0 -409 -9t-252 -23q-74 -15 -107 -47.5t-33 -82.5v-20h90v-96h-90v-534h-110v534h-89v96h89v29q0 78 49.5 131.5t168.5 76.5q93 18 279.5 28.5
t453.5 10.5q243 0 437 -9t287 -28q89 -18 138 -49q46 40 126 40h30v-83h-43q-31 0 -46.5 -17.5zM2091 754v-94h-94v94h94z" />
    <glyph glyph-name="uni093F0930094D0902.30" 
d="M2006.5 759.5q-15.5 -17.5 -15.5 -49.5q0 -25 6 -51h-89q-11 38 -11 67v6q-4 14 -29.5 25t-79.5 21q-160 34 -711 34h-64q-237 0 -422 -9t-259 -24q-76 -16 -109.5 -48.5t-33.5 -82.5v-18h90v-96h-90v-534h-110v534h-89v96h89v26q0 79 50 132.5t171 77.5
q96 19 288.5 29.5t466.5 10.5q247 0 448 -9.5t297 -28.5q91 -18 139 -49q47 41 127 41h30v-83h-43q-31 0 -46.5 -17.5zM2139 754v-94h-94v94h94z" />
    <glyph glyph-name="uni0915" unicode="&#x915;" horiz-adv-x="720" 
d="M409 413q38 50 105 50q70 0 111.5 -51.5t41.5 -139.5q0 -92 -46.5 -144t-126.5 -52q-11 0 -25 2v99h9q39 0 56 20.5t17 60.5v23q0 40 -17 60.5t-56 20.5t-56 -20t-17 -61v-281h-110v130h-5q-16 -24 -43 -39.5t-64 -15.5q-68 0 -109 53.5t-41 146.5q0 92 40.5 144.5
t108.5 52.5q38 0 65.5 -15.5t42.5 -39.5h5v117h-305v96h740v-96h-325v-121h4zM295 283q0 44 -18 66t-58 22q-39 0 -57 -21.5t-18 -64.5v-23q0 -43 18 -64.5t57 -21.5q40 0 58 21.5t18 64.5v21z" />
    <glyph glyph-name="uni0916" unicode="&#x916;" horiz-adv-x="746" 
d="M756 534h-90v-534h-110v75q-29 -23 -79.5 -35.5t-108.5 -12.5q-105 0 -184 37t-123 111.5t-44 182.5h75q33 0 50.5 23t17.5 67v86h-170v96h766v-96zM556 534h-286v-74q0 -89 -35 -138t-102 -55q24 -70 80.5 -109.5t147.5 -39.5q85 0 134 23t61 63v1h-5q-16 -13 -39.5 -21
t-52.5 -8q-68 0 -106 38t-38 115q0 76 38 113t106 37q29 0 52.5 -8t39.5 -21h5v84zM556 333q0 23 -15 34.5t-48 11.5q-34 0 -48.5 -11t-14.5 -34v-13q0 -22 14.5 -33t48.5 -11t48.5 11t14.5 33v12z" />
    <glyph glyph-name="uni0917" unicode="&#x917;" horiz-adv-x="619" 
d="M629 534h-90v-534h-110v534h-124v-269q0 -70 -42 -113t-110 -43q-69 0 -111 43t-42 113q0 71 41.5 113t111.5 42h41v114h-204v96h639v-96zM183.5 222q10.5 15 10.5 43v57h-41q-20 0 -31.5 -15.5t-11.5 -41.5q0 -58 43 -58q20 0 30.5 15z" />
    <glyph glyph-name="uni0918" unicode="&#x918;" horiz-adv-x="580" 
d="M591 534h-90v-534h-110v112q-44 -36 -122 -36q-59 0 -106.5 21t-74 58.5t-26.5 85.5q0 45 22 77.5t58 46.5q-80 29 -80 106q0 35 17 63h-89v96h601v-96zM391 281v253h-179q-19 0 -26.5 -17.5t-7.5 -39.5q0 -33 16.5 -52t42.5 -19h61v-91h-60q-26 0 -43 -15.5t-17 -45.5
q0 -41 30.5 -64.5t78.5 -23.5q104 0 104 115z" />
    <glyph glyph-name="uni0919" unicode="&#x919;" horiz-adv-x="554" 
d="M565 534h-168v-159h-160q-31 0 -46.5 -9.5t-15.5 -29.5q0 -40 62 -40h35q78 0 122.5 -32.5t44.5 -111.5q0 -86 -52.5 -124.5t-140.5 -38.5q-96 0 -147.5 41t-51.5 108q0 9 1 16h112v-7q0 -33 24.5 -50.5t67.5 -17.5q75 0 75 62q0 35 -21 47t-55 12h-11q-83 0 -130.5 32
t-47.5 104t47.5 104t130.5 32h47v62h-297v96h575v-96zM444 424h114v-114h-114v114z" />
    <glyph glyph-name="uni091A" unicode="&#x91a;" horiz-adv-x="535" 
d="M545 534h-90v-534h-110v105h-4q-47 -29 -103 -29q-72 0 -113.5 45t-41.5 134q0 58 21 92h-100v98h280v-98h-12q-39 0 -56 -17.5t-17 -51.5v-20q0 -41 17 -61t56 -20t56 20t17 61v276h-355v96h555v-96z" />
    <glyph glyph-name="uni091B" unicode="&#x91b;" horiz-adv-x="629" 
d="M640 534h-134v-72q92 -29 92 -148q0 -74 -38 -136t-109 -98t-164 -36q-72 0 -127.5 22t-87 60.5t-31.5 87.5q0 42 23 75.5t56 46.5q-34 14 -56.5 46.5t-22.5 78.5q0 43 21 73h-93v96h671v-96zM396 534h-194q-45 0 -45 -74q0 -40 13 -62t36 -22h32v-90h-31
q-23 0 -36.5 -15t-13.5 -42q0 -45 34 -70t97 -25q70 0 116 26t67.5 65t21.5 79v25q0 31 -10.5 46t-36.5 15q-40 0 -40 -34v-23h-93q-4 20 -4 33q0 36 22.5 62t64.5 36v70z" />
    <glyph glyph-name="uni091C" unicode="&#x91c;" horiz-adv-x="617" 
d="M627 534h-90v-534h-110v324h-75v-99q0 -71 -45 -110t-120 -39t-119 39t-44 110v197h110v-194q0 -26 15.5 -42t37.5 -16q23 0 38.5 16t15.5 42v194h186v112h-437v96h637v-96z" />
    <glyph glyph-name="uni091D" unicode="&#x91d;" horiz-adv-x="734" 
d="M745 534h-90v-534h-110v236h-126q15 -24 15 -65q0 -75 -46 -111.5t-122 -36.5q-63 0 -104 23v-95h-101v237h121v-7q0 -33 21 -50.5t58 -17.5q31 0 45.5 14.5t14.5 44.5q0 34 -20 44.5t-56 10.5h-10q-178 0 -178 125q0 62 42.5 91t114.5 29h68v62h-298v96h761v-96z
M545 534h-153v-159h-181q-41 0 -41 -25q0 -14 15 -20.5t47 -6.5h313v211z" />
    <glyph glyph-name="uni091E" unicode="&#x91e;" horiz-adv-x="637" 
d="M648 534h-90v-534h-110v226h-116q-8 -80 -48.5 -118t-113.5 -38q-69 0 -111 33.5t-42 88.5q0 10 3 19h106v-4q0 -21 11 -32.5t33 -11.5q54 0 54 80v55q0 81 -51 81q-20 0 -32 -11.5t-12 -32.5v-4h-109q-3 9 -3 18q0 56 43 89.5t113 33.5q138 0 158 -149h117v211h-469v96
h669v-96z" />
    <glyph glyph-name="uni091F" unicode="&#x91f;" horiz-adv-x="432" 
d="M165 353q-18 -26 -18 -78v-34q0 -52 15.5 -78t51.5 -26t52 19t16 59v22h113q2 -12 2 -27q0 -85 -45.5 -125.5t-137.5 -40.5t-137.5 52.5t-45.5 161.5t48 161.5t146 52.5h23v62h-258v96h452v-96h-84v-155h-133q-42 0 -60 -26z" />
    <glyph glyph-name="uni0920" unicode="&#x920;" horiz-adv-x="460" 
d="M358 534v-97q66 -51 66 -179q0 -110 -48 -162t-145 -52q-98 0 -146 52.5t-48 161.5t48 161.5t146 52.5h17v62h-258v96h480v-96h-112zM309 275q0 42 -10 67.5t-33 36.5h-35q-42 0 -60 -26t-18 -78v-34q0 -52 18 -78t60 -26t60 26t18 78v34z" />
    <glyph glyph-name="uni0921" unicode="&#x921;" horiz-adv-x="474" 
d="M190.5 365.5q-15.5 -9.5 -15.5 -29.5q0 -40 62 -40h35q78 0 122.5 -32.5t44.5 -111.5q0 -86 -52.5 -124.5t-140.5 -38.5q-96 0 -147.5 41t-51.5 108q0 9 1 16h112v-7q0 -33 24.5 -50.5t67.5 -17.5q75 0 75 62q0 35 -21 47t-55 12h-11q-83 0 -130.5 32t-47.5 104t47.5 104
t130.5 32h47v62h-297v96h495v-96h-88v-159h-160q-31 0 -46.5 -9.5z" />
    <glyph glyph-name="uni0978" unicode="&#x978;" horiz-adv-x="472" 
d="M305 428q0 -56 -14 -96q70 -14 105 -59.5t35 -108.5q0 -65 -55 -164h-113q54 95 54 159q0 40 -21.5 60.5t-73.5 20.5h-150v97h75q47 0 47 80v117h-204v96h493v-96h-178v-106z" />
    <glyph glyph-name="uni0922" unicode="&#x922;" horiz-adv-x="456" 
d="M165.5 353q-20.5 -26 -20.5 -78v-34q0 -50 23 -76q-7 18 -7 43q0 52 31.5 90t99.5 38q62 0 101.5 -34t39.5 -98q0 -72 -50.5 -116t-139.5 -44q-101 0 -157.5 58.5t-56.5 165.5q0 100 52 152t152 52h32v62h-275v96h476v-96h-91v-155h-142q-47 0 -67.5 -26zM249 189
q0 -58 36 -58q20 0 30.5 15.5t10.5 44.5q0 55 -39 55q-38 0 -38 -57z" />
    <glyph glyph-name="uni0923" unicode="&#x923;" horiz-adv-x="726" 
d="M737 534h-90v-534h-110v534h-122v-299q0 -75 -48.5 -117t-131.5 -42t-131 41.5t-48 117.5v299h-66v96h747v-96zM305 534h-139v-296q0 -31 19 -49.5t50 -18.5t50.5 18.5t19.5 49.5v296z" />
    <glyph glyph-name="uni0924" unicode="&#x924;" horiz-adv-x="504" 
d="M524 534h-90v-534h-110v329h-125q-34 0 -48 -18t-14 -53q0 -101 87 -258h-120q-51 102 -65.5 161.5t-14.5 103.5q0 69 42.5 115t131.5 46h126v108h-334v96h534v-96z" />
    <glyph glyph-name="uni0925" unicode="&#x925;" horiz-adv-x="654" 
d="M665 534h-90v-534h-110v185q-25 -21 -66 -32t-87 -11q-104 0 -164.5 55.5t-60.5 160.5q159 0 159 127q0 33 -11.5 49.5t-35.5 16.5q-44 0 -44 -46v-27h-104q-4 24 -4 35q0 58 40 93.5t112 35.5q78 0 119.5 -43.5t41.5 -116.5q0 -72 -38.5 -122t-103.5 -73q30 -54 106 -54
q70 0 105.5 39t35.5 107v155h-79v96h279v-96z" />
    <glyph glyph-name="uni0926" unicode="&#x926;" horiz-adv-x="451" 
d="M165 353q-18 -26 -18 -78v-34q0 -54 18.5 -79t62.5 -25q50 0 69 30l-12 50h110l52 -217h-110l-16 67q-38 -23 -101 -23q-189 0 -189 216q0 108 48.5 160t145.5 52h32v62h-267v96h472v-96h-95v-155h-142q-42 0 -60 -26z" />
    <glyph glyph-name="uni0927" unicode="&#x927;" horiz-adv-x="648" 
d="M658 534h-89v-534h-110v121q-54 -45 -161 -45q-73 0 -126.5 21.5t-81.5 60t-28 88.5q0 46 22 80t58 48q-80 35 -80 125q0 66 39.5 104.5t109.5 38.5q65 0 101.5 -32.5t36.5 -84.5q0 -13 -4 -33h-104v27q0 14 -7 23t-21 9q-20 0 -27.5 -17.5t-7.5 -41.5q0 -37 16.5 -57
t42.5 -20h61v-91h-60q-27 0 -43.5 -16.5t-16.5 -48.5q0 -45 34.5 -69t99.5 -24q74 0 110.5 30t36.5 85v253h-78v96h277v-96z" />
    <glyph glyph-name="uni0928" unicode="&#x928;" horiz-adv-x="591" 
d="M601 534h-90v-534h-110v311h-95v-48q0 -66 -41.5 -106.5t-109.5 -40.5q-69 0 -111 40.5t-42 106.5t42 106t111 40h246v125h-411v96h611v-96zM196 311h-41q-19 0 -31 -13t-12 -35q0 -20 12.5 -35t30.5 -15t29.5 14t11.5 36v48z" />
    <glyph glyph-name="uni0929" unicode="&#x929;" horiz-adv-x="591" 
d="M0 0zM601 534h-90v-534h-110v311h-95v-48q0 -66 -41.5 -106.5t-109.5 -40.5q-69 0 -111 40.5t-42 106.5t42 106t111 40h246v125h-411v96h611v-96zM196 311h-41q-19 0 -31 -13t-12 -35q0 -20 12.5 -35t30.5 -15t29.5 14t11.5 36v48zM219 54zM93 54h126v-126h-126v126z" />
    <glyph glyph-name="uni092A" unicode="&#x92a;" horiz-adv-x="491" 
d="M502 534h-90v-534h-110v169q-39 -27 -96 -27q-71 0 -112.5 42t-41.5 118v232h-62v96h512v-96zM282.5 255q19.5 19 19.5 50v229h-140v-220q0 -36 19.5 -57t51.5 -21q30 0 49.5 19z" />
    <glyph glyph-name="uni092B" unicode="&#x92b;" horiz-adv-x="727" 
d="M412 413h4q38 50 105 50q70 0 111.5 -51.5t41.5 -139.5q0 -92 -46.5 -144t-126.5 -52q-11 0 -25 2v99h9q39 0 56 20.5t17 60.5v23q0 40 -17 60.5t-56 20.5t-56 -20t-17 -61v-281h-110v169q-39 -27 -96 -27q-71 0 -112.5 42t-41.5 118v232h-62v96h747v-96h-325v-121z
M162 534v-220q0 -36 19.5 -57t51.5 -21q30 0 49.5 19t19.5 50v229h-140z" />
    <glyph glyph-name="uni092C" unicode="&#x92c;" horiz-adv-x="506" 
d="M516 534h-90v-534h-110v109h-5q-20 -14 -50 -24t-63 -10q-77 0 -121 53t-44 147q0 92 43.5 144.5t121.5 52.5q33 0 64 -10t49 -24h5v96h-326v96h526v-96zM316 262v21q0 43 -22 65.5t-69 22.5q-13 0 -19 -1l92 -168q18 21 18 60zM155 197.5q22 -21.5 70 -21.5q15 0 22 1
l-93 172q-21 -22 -21 -64v-23q0 -43 22 -64.5z" />
    <glyph glyph-name="uni092D" unicode="&#x92d;" horiz-adv-x="675" 
d="M685 534h-89v-534h-110v241h-128v-47q0 -66 -42 -106.5t-110 -40.5q-69 0 -111 40.5t-42 106.5t42 105.5t111 39.5h42v148q0 64 -47 64q-27 0 -39 -17.5t-12 -41.5v-38h-104q0 3 -2 14.5t-2 29.5q0 65 42.5 104.5t113.5 39.5q79 0 119.5 -39t40.5 -109v-155h128v195h-94
v96h293v-96zM248 241h-42q-20 0 -31.5 -12.5t-11.5 -34.5q0 -21 12.5 -35t30.5 -14q19 0 30.5 13.5t11.5 35.5v47z" />
    <glyph glyph-name="uni092E" unicode="&#x92e;" horiz-adv-x="630" 
d="M641 534h-90v-534h-110v241h-136v-48q0 -66 -42 -106t-110 -40q-70 0 -111.5 40t-41.5 106t41.5 106t111.5 40h41v195h-204v96h651v-96zM441 339v195h-136v-195h136zM194 241h-41q-20 0 -31.5 -13t-11.5 -35q0 -20 13 -34.5t30 -14.5q19 0 30 13.5t11 35.5v48z" />
    <glyph glyph-name="uni092F" unicode="&#x92f;" horiz-adv-x="544" 
d="M555 534h-90v-534h-110v167q-42 -25 -116 -25q-103 0 -157 54.5t-54 161.5q47 0 85 21.5t38 69.5q0 35 -20 60t-48 25h-93v96h565v-96zM355 347v187h-130q18 -19 27.5 -46t9.5 -57q0 -48 -28.5 -85.5t-79.5 -58.5q23 -54 95 -54q106 0 106 114z" />
    <glyph glyph-name="uni0930" unicode="&#x930;" horiz-adv-x="379" 
d="M389 534h-84v-106q0 -85 -36 -131.5t-106 -51.5l129 -245h-115l-126 264v73h75q34 0 51 20.5t17 59.5v117h-204v96h399v-96z" />
    <glyph glyph-name="uni0931" unicode="&#x931;" horiz-adv-x="379" 
d="M0 0zM389 534h-84v-106q0 -85 -36 -131.5t-106 -51.5l129 -245h-115l-126 264v73h75q34 0 51 20.5t17 59.5v117h-204v96h399v-96zM91 77zM-35 77h126v-126h-126v126z" />
    <glyph glyph-name="uni0932" unicode="&#x932;" horiz-adv-x="672" 
d="M683 534h-90v-534h-110v279q0 43 -14 67t-41 24q-56 0 -56 -98v-72h-115v72q0 98 -56 98q-27 0 -40.5 -35.5t-13.5 -96.5q0 -145 110 -145h45v-89q-20 -4 -46 -4q-110 0 -167 63.5t-57 185.5q0 61 18.5 109.5t53 76.5t80.5 28q50 0 83 -25.5t46 -68.5h3q13 43 42.5 68.5
t76.5 25.5q25 0 48 -10v81h-493v96h693v-96z" />
    <glyph glyph-name="uni0933" unicode="&#x933;" horiz-adv-x="731" 
d="M581 534v-74q54 -20 85.5 -72.5t31.5 -125.5q0 -63 -23 -112.5t-65.5 -77.5t-98.5 -28q-94 0 -150 77q-48 -77 -144 -77q-54 0 -96 26.5t-65 74.5t-23 110q0 63 23 112t65.5 77t98.5 28q94 0 150 -76q38 57 101 72v66h-481v96h752v-96h-161zM284.5 171q26.5 31 36.5 104
q-13 51 -37.5 75.5t-54.5 24.5q-38 0 -60 -35t-22 -86t21.5 -82.5t56.5 -31.5q33 0 59.5 31zM562 176q22 36 22 87q0 50 -21.5 81t-56.5 31q-33 0 -59.5 -30.5t-36.5 -102.5q13 -52 37.5 -77t54.5 -25q38 0 60 36z" />
    <glyph glyph-name="uni0934" unicode="&#x934;" horiz-adv-x="731" 
d="M0 0zM581 534v-74q54 -20 85.5 -72.5t31.5 -125.5q0 -63 -23 -112.5t-65.5 -77.5t-98.5 -28q-94 0 -150 77q-48 -77 -144 -77q-54 0 -96 26.5t-65 74.5t-23 110q0 63 23 112t65.5 77t98.5 28q94 0 150 -76q38 57 101 72v66h-481v96h752v-96h-161zM284.5 171
q26.5 31 36.5 104q-13 51 -37.5 75.5t-54.5 24.5q-38 0 -60 -35t-22 -86t21.5 -82.5t56.5 -31.5q33 0 59.5 31zM562 176q22 36 22 87q0 50 -21.5 81t-56.5 31q-33 0 -59.5 -30.5t-36.5 -102.5q13 -52 37.5 -77t54.5 -25q38 0 60 36zM430 -18zM304 -18h126v-126h-126v126z
" />
    <glyph glyph-name="uni0935" unicode="&#x935;" horiz-adv-x="485" 
d="M495 534h-90v-534h-110v109h-5q-45 -34 -103 -34q-73 0 -113.5 53t-40.5 147q0 93 40.5 145t113.5 52q33 0 59.5 -9.5t43.5 -24.5h5v96h-305v96h505v-96zM277 197.5q18 21.5 18 64.5v21q0 44 -18 66t-58 22q-39 0 -57 -21.5t-18 -64.5v-23q0 -43 18 -64.5t57 -21.5
q40 0 58 21.5z" />
    <glyph glyph-name="uni0936" unicode="&#x936;" horiz-adv-x="643" 
d="M337 372q-23 -48 -63.5 -78.5t-90.5 -39.5l167 -254h-115l-166 264v73h31q75 0 110.5 37.5t35.5 105.5q0 37 -11 54t-36 17q-44 0 -44 -46v-27h-104q-4 24 -4 35q0 58 40 93.5t112 35.5q78 0 119.5 -43.5t41.5 -120.5q0 -58 -23 -106zM653 534h-89v-534h-111v534h-62v96
h262v-96z" />
    <glyph glyph-name="uni0937" unicode="&#x937;" horiz-adv-x="491" 
d="M502 534h-90v-534h-110v169q-39 -27 -96 -27q-71 0 -112.5 42t-41.5 118v232h-62v96h512v-96zM176 534l126 -232v3v229h-126zM181.5 257q19.5 -21 51.5 -21q20 0 38 10l-109 199v-131q0 -36 19.5 -57z" />
    <glyph glyph-name="uni0938" unicode="&#x938;" horiz-adv-x="605" 
d="M626 534h-90v-534h-110v232h-256l122 -232h-115l-126 264v73h75q34 0 51 20.5t17 59.5v117h-204v96h636v-96zM426 534h-121v-106q0 -62 -20 -105h141v211z" />
    <glyph glyph-name="uni0939" unicode="&#x939;" horiz-adv-x="500" 
d="M187.5 366q-12.5 -9 -12.5 -26q0 -21 21.5 -27t54.5 -6q10 1 31 1q90 0 138.5 -48t48.5 -126q0 -18 -2 -30h-105v32q0 41 -24 63.5t-67 22.5q-99 0 -99 -93q0 -51 33.5 -76t101.5 -25h77v-82q-50 -12 -87 -12q-109 0 -169.5 50.5t-60.5 139.5q0 80 48 128q-53 29 -53 96
q0 64 42.5 94t114.5 30h58v62h-287v96h521v-96h-109v-159h-186q-16 0 -28.5 -9z" />
    <glyph glyph-name="uni0958" unicode="&#x958;" horiz-adv-x="720" 
d="M0 0zM409 413q38 50 105 50q70 0 111.5 -51.5t41.5 -139.5q0 -92 -46.5 -144t-126.5 -52q-11 0 -25 2v99h9q39 0 56 20.5t17 60.5v23q0 40 -17 60.5t-56 20.5t-56 -20t-17 -61v-281h-110v130h-5q-16 -24 -43 -39.5t-64 -15.5q-68 0 -109 53.5t-41 146.5q0 92 40.5 144.5
t108.5 52.5q38 0 65.5 -15.5t42.5 -39.5h5v117h-305v96h740v-96h-325v-121h4zM295 283q0 44 -18 66t-58 22q-39 0 -57 -21.5t-18 -64.5v-23q0 -43 18 -64.5t57 -21.5q40 0 58 21.5t18 64.5v21zM162 56zM36 56h126v-126h-126v126z" />
    <glyph glyph-name="uni0959" unicode="&#x959;" horiz-adv-x="746" 
d="M0 0zM756 534h-90v-534h-110v75q-29 -23 -79.5 -35.5t-108.5 -12.5q-105 0 -184 37t-123 111.5t-44 182.5h75q33 0 50.5 23t17.5 67v86h-170v96h766v-96zM556 534h-286v-74q0 -89 -35 -138t-102 -55q24 -70 80.5 -109.5t147.5 -39.5q85 0 134 23t61 63v1h-5
q-16 -13 -39.5 -21t-52.5 -8q-68 0 -106 38t-38 115q0 76 38 113t106 37q29 0 52.5 -8t39.5 -21h5v84zM556 333q0 23 -15 34.5t-48 11.5q-34 0 -48.5 -11t-14.5 -34v-13q0 -22 14.5 -33t48.5 -11t48.5 11t14.5 33v12zM122 79zM-4 79h126v-126h-126v126z" />
    <glyph glyph-name="uni095A" unicode="&#x95a;" horiz-adv-x="619" 
d="M0 0zM629 534h-90v-534h-110v534h-124v-269q0 -70 -42 -113t-110 -43q-69 0 -111 43t-42 113q0 71 41.5 113t111.5 42h41v114h-204v96h639v-96zM183.5 222q10.5 15 10.5 43v57h-41q-20 0 -31.5 -15.5t-11.5 -41.5q0 -58 43 -58q20 0 30.5 15zM217 38zM91 38h126v-126
h-126v126z" />
    <glyph glyph-name="uni095B" unicode="&#x95b;" horiz-adv-x="617" 
d="M0 0zM627 534h-90v-534h-110v324h-75v-99q0 -71 -45 -110t-120 -39t-119 39t-44 110v197h110v-194q0 -26 15.5 -42t37.5 -16q23 0 38.5 16t15.5 42v194h186v112h-437v96h637v-96zM252 18zM126 18h126v-126h-126v126z" />
    <glyph glyph-name="uni095C" unicode="&#x95c;" horiz-adv-x="474" 
d="M0 0zM190.5 365.5q-15.5 -9.5 -15.5 -29.5q0 -40 62 -40h35q78 0 122.5 -32.5t44.5 -111.5q0 -86 -52.5 -124.5t-140.5 -38.5q-96 0 -147.5 41t-51.5 108q0 9 1 16h112v-7q0 -33 24.5 -50.5t67.5 -17.5q75 0 75 62q0 35 -21 47t-55 12h-11q-83 0 -130.5 32t-47.5 104
t47.5 104t130.5 32h47v62h-297v96h495v-96h-88v-159h-160q-31 0 -46.5 -9.5zM310 -73zM184 -73h126v-126h-126v126z" />
    <glyph glyph-name="uni095D" unicode="&#x95d;" horiz-adv-x="456" 
d="M0 0zM165.5 353q-20.5 -26 -20.5 -78v-34q0 -50 23 -76q-7 18 -7 43q0 52 31.5 90t99.5 38q62 0 101.5 -34t39.5 -98q0 -72 -50.5 -116t-139.5 -44q-101 0 -157.5 58.5t-56.5 165.5q0 100 52 152t152 52h32v62h-275v96h476v-96h-91v-155h-142q-47 0 -67.5 -26zM249 189
q0 -58 36 -58q20 0 30.5 15.5t10.5 44.5q0 55 -39 55q-38 0 -38 -57zM307 -18zM181 -18h126v-126h-126v126z" />
    <glyph glyph-name="uni095E" unicode="&#x95e;" horiz-adv-x="727" 
d="M0 0zM412 413h4q38 50 105 50q70 0 111.5 -51.5t41.5 -139.5q0 -92 -46.5 -144t-126.5 -52q-11 0 -25 2v99h9q39 0 56 20.5t17 60.5v23q0 40 -17 60.5t-56 20.5t-56 -20t-17 -61v-281h-110v169q-39 -27 -96 -27q-71 0 -112.5 42t-41.5 118v232h-62v96h747v-96h-325v-121z
M162 534v-220q0 -36 19.5 -57t51.5 -21q30 0 49.5 19t19.5 50v229h-140zM109 80zM-17 80h126v-126h-126v126z" />
    <glyph glyph-name="uni095F" unicode="&#x95f;" horiz-adv-x="544" 
d="M0 0zM555 534h-90v-534h-110v167q-42 -25 -116 -25q-103 0 -157 54.5t-54 161.5q47 0 85 21.5t38 69.5q0 35 -20 60t-48 25h-93v96h565v-96zM355 347v187h-130q18 -19 27.5 -46t9.5 -57q0 -48 -28.5 -85.5t-79.5 -58.5q23 -54 95 -54q106 0 106 114zM133 78zM7 78h126
v-126h-126v126z" />
    <glyph glyph-name="uni0979" unicode="&#x979;" horiz-adv-x="617" 
d="M627 534h-90v-534h-110v324h-75v-99q0 -71 -45 -110t-120 -39t-119 39t-44 110v197h110v-194q0 -26 15.5 -42t37.5 -16q23 0 38.5 16t15.5 42v194h186v112h-437v96h637v-96zM240 18h126v-126h-108v-107h-126v107h-105v126h126v-107h87v107z" />
    <glyph glyph-name="uni097A" unicode="&#x97a;" horiz-adv-x="544" 
d="M555 534h-90v-534h-110v167q-42 -25 -116 -25q-103 0 -157 54.5t-54 161.5q47 0 85 21.5t38 69.5q0 35 -20 60t-48 25h-93v96h565v-96zM230 534l122 -224q3 18 3 37v187h-125zM249 233q45 0 72 21l-69 125q-11 -30 -36.5 -53.5t-61.5 -38.5q23 -54 95 -54z" />
    <glyph glyph-name="uni097B" unicode="&#x97b;" horiz-adv-x="619" 
d="M539 534v-451h1v-83h-498v83h387v451h-124v-258q0 -70 -42 -113t-110 -43q-70 0 -111.5 42.5t-41.5 113.5q0 70 41.5 112.5t111.5 42.5h41v103h-204v96h639v-96h-90zM183.5 232q10.5 15 10.5 44v57h-41q-19 0 -31 -15.5t-12 -41.5q0 -59 43 -59q20 0 30.5 15z" />
    <glyph glyph-name="uni097C" unicode="&#x97c;" horiz-adv-x="619" 
d="M539 534v-451h1v-83h-514v83h403v241h-75v-58q0 -70 -45 -109t-120 -39q-74 0 -118.5 39t-44.5 109v156h110v-153q0 -26 15.5 -42t37.5 -16t38 16t16 42v153h186v112h-439v96h639v-96h-90z" />
    <glyph glyph-name="uni097E" unicode="&#x97e;" horiz-adv-x="467" 
d="M178 367.5q-11 -7.5 -11 -23.5t11.5 -23t36.5 -7h71q69 0 107.5 -33t38.5 -92q0 -78 -53 -113t-140 -35q-96 0 -147.5 38t-51.5 101l1 16h112v-8q0 -28 24 -42.5t67 -14.5q75 0 75 51q0 29 -17.5 38.5t-47.5 9.5h-56q-143 0 -143 117q0 125 163 125h62v62h-290v96h487
v-96h-87v-159h-175q-26 0 -37 -7.5zM40 0h371v-83h-371v83z" />
    <glyph glyph-name="uni097F" unicode="&#x97f;" horiz-adv-x="504" 
d="M515 534h-90v-534h-382v83h272v83h-5q-22 -12 -53.5 -20.5t-70.5 -8.5q-72 0 -113 42.5t-41 129.5q0 86 42 128t118 42q37 0 67.5 -8t50.5 -21h5v84h-325v96h525v-96zM315 296v21q0 31 -21 46.5t-67 15.5h-16l72 -132q32 13 32 49zM156 252.5q22 -14.5 71 -14.5h7
l-71 130q-29 -14 -29 -49v-23q0 -29 22 -43.5z" />
    <glyph glyph-name="uni092F.post.01" horiz-adv-x="554" 
d="M565 534h-90v-727h-110v82q-39 -39 -122 -39q-97 0 -151 56.5t-54 163.5q40 12 64 33t24 46q0 44 -45 44h-59v97h70q73 0 109.5 -31.5t36.5 -97.5q0 -83 -81 -137q9 -39 32 -61t71 -22q105 0 105 114v479h-365v96h565v-96z" />
    <glyph glyph-name="uni0932.loclMAR" horiz-adv-x="629" 
d="M510 534v-89q41 -25 64 -80t23 -127q0 -115 -46.5 -176.5t-129.5 -61.5q-19 0 -31 4v89h24q69 0 69 135q0 65 -14 103.5t-41 38.5q-56 0 -56 -98v-72h-115v72q0 98 -56 98q-27 0 -40.5 -38t-13.5 -104q0 -67 17.5 -101t50.5 -34h24v-89q-12 -4 -31 -4q-83 0 -129.5 61.5
t-46.5 176.5q0 65 18.5 116t53 80t80.5 29q50 0 83 -25.5t46 -68.5h3q10 32 31 55t52 32v78h-409v96h650v-96h-130z" />
    <glyph glyph-name="uni0936.loclMAR" horiz-adv-x="642" 
d="M653 534h-90v-534h-110v534h-179v-57q53 -13 80 -54t27 -103q0 -87 -47.5 -130t-143.5 -51l34 -139h-111l-62 261h110l9 -38q53 4 75 26.5t22 72.5q0 38 -11.5 54.5t-36.5 16.5q-43 0 -43 -46v-27h-104q-4 24 -4 35q0 48 27.5 81.5t78.5 43.5v54h-184v96h663v-96z" />
    <glyph glyph-name="uni091D.loclNEP" horiz-adv-x="911" 
d="M596 413h4q38 50 105 50q70 0 111.5 -51.5t41.5 -139.5q0 -92 -46.5 -144t-126.5 -52q-11 0 -25 2v99h9q39 0 56 20.5t17 60.5v23q0 40 -17 60.5t-56 20.5t-56 -20t-17 -61v-281h-110v241h-128v-47q0 -66 -42 -106.5t-110 -40.5q-69 0 -111 40.5t-42 106.5t42 105.5
t111 39.5h42v148q0 64 -47 64q-27 0 -39 -17.5t-12 -41.5v-38h-104q0 3 -2 14.5t-2 29.5q0 65 42.5 104.5t113.5 39.5q79 0 119.5 -39t40.5 -109v-155h128v195h-94v96h529v-96h-325v-121zM248 241h-42q-20 0 -31.5 -12.5t-11.5 -34.5q0 -21 12.5 -35t30.5 -14
q19 0 30.5 13.5t11.5 35.5v47z" />
    <glyph glyph-name="uni0979.loclNEP" horiz-adv-x="591" 
d="M373 534v-110h2q89 0 135.5 -45.5t46.5 -128.5q0 -81 -42 -121.5t-127 -48.5l19 -80h-111l-47 203h110l9 -40q42 4 59 24.5t17 65.5q0 43 -16.5 62t-52.5 19h-9q-14 -52 -58.5 -78.5t-105.5 -26.5q-80 0 -124.5 42t-44.5 119q0 22 3 34h111v-27q0 -41 13 -59.5t43 -18.5
t44 20.5t14 65.5v129h-271v96h611v-96h-228z" />
    <glyph glyph-name="uni092F.post" horiz-adv-x="475" 
d="M486 534h-90v-534h-110v83q-39 -39 -122 -39q-97 0 -151 56t-54 163q40 15 64 38.5t24 51.5q0 34 -45 34h-155v97h165q147 0 147 -119q0 -88 -82 -146q9 -40 32 -62.5t72 -22.5q105 0 105 115v285h-365v96h565v-96z" />
    <glyph glyph-name="uni0935.post" horiz-adv-x="432" 
d="M212.5 113.5q22.5 -8.5 36.5 -21.5h5v136h105v-421h-105v49h-5q-14 -13 -36.5 -21.5t-48.5 -8.5q-62 0 -96.5 37t-34.5 112q0 74 34.5 110.5t96.5 36.5q26 0 48.5 -8.5zM150.5 14q-13.5 -11 -13.5 -34v-12q0 -23 13.5 -34t45.5 -11q31 0 44.5 11t13.5 34v11
q0 23 -13.5 34.5t-44.5 11.5q-32 0 -45.5 -11z" />
    <glyph glyph-name="uni0928.post2" horiz-adv-x="0" 
d="M-125 179l-210 -111q34 -29 34 -76q0 -49 -36.5 -81t-90.5 -32q-53 0 -87 30.5t-34 81.5q0 73 81 117l343 184v-113zM-401.5 -31.5q8.5 10.5 8.5 23.5q0 24 -30 41l-5 -3q-17 -11 -23 -19.5t-6 -18.5q0 -15 8.5 -24.5t23.5 -9.5t23.5 10.5z" />
    <glyph glyph-name="uni0930.post2" horiz-adv-x="0" 
d="M-350 -73v123l217 206v-119z" />
    <glyph glyph-name="uni0915094D0915" horiz-adv-x="691" 
d="M410 446q15 15 43.5 24t59.5 9q63 0 109 -36.5t46 -105.5q0 -66 -44 -99q44 -44 44 -112q0 -75 -45.5 -113t-115.5 -38q-4 0 -16 2v99h6q30 0 46 13.5t16 38.5q0 26 -20 40.5t-57 14.5t-57 -16t-20 -45v-174h-110v60h-5q-16 -15 -44 -24t-59 -9q-40 0 -75.5 16t-57.5 48
t-22 79q0 38 15 64.5t41 41.5q-56 38 -56 115q0 69 43.5 104.5t111.5 35.5q31 0 59.5 -9t44.5 -24h4v88h-305v96h711v-96h-296v-88h5zM161 372q-20 -15 -20 -43q0 -31 19.5 -47t57.5 -16q37 0 57 14.5t20 41.5v9q0 27 -20 41.5t-57 14.5t-57 -15zM426.5 367
q-21.5 -17 -21.5 -45v-77h5q16 16 44 25t59 9h12q34 6 34 50q0 25 -21.5 40t-55.5 15t-55.5 -17zM275.5 84.5q19.5 16.5 19.5 47.5v77h-5q-13 -15 -43.5 -25t-61.5 -10l-14 1q-30 -8 -30 -49q0 -28 19.5 -43t57.5 -15t57.5 16.5z" />
    <glyph glyph-name="uni0915094D0924" horiz-adv-x="751" 
d="M466 398h4q46 29 103 29q74 0 114.5 -48t40.5 -146q0 -96 -48.5 -144t-129.5 -48q-4 0 -20 2v98h10q39 0 56 21t17 61v22q0 40 -17 61t-56 21t-56.5 -20.5t-17.5 -61.5v-245h-110v347h-105q-35 0 -53.5 -25.5t-18.5 -73.5q0 -39 16 -96t70 -152h-119q-51 93 -65.5 148
t-14.5 96q0 60 22 103h-84v98h352v89h-366v96h771v-96h-295v-136z" />
    <glyph glyph-name="uni0915094D0930" horiz-adv-x="716" 
d="M405 413q38 50 105 50q70 0 111.5 -51.5t41.5 -139.5q0 -92 -46.5 -144t-126.5 -52q-11 0 -25 2v99h9q39 0 56 20.5t17 60.5v23q0 40 -17 60.5t-56 20.5t-56 -20t-17 -61v-281h-110v166h-5l-3 -1l-253 -175v116l85 53q-86 33 -86 150q0 87 40.5 128.5t113.5 41.5
q62 0 103 -29h5v84h-301v96h736v-96h-325v-121h4zM144 296q0 -29 17 -43.5t56 -14.5q74 0 74 58v21q0 31 -17.5 46.5t-56.5 15.5t-56 -15t-17 -45v-23z" />
    </font>
</defs>
</svg>
