<?xml version="1.0" standalone="no"?>
<!DOCTYPE svg PUBLIC "-//W3C//DTD SVG 1.1//EN" "http://www.w3.org/Graphics/SVG/1.1/DTD/svg11.dtd" >
<svg xmlns="http://www.w3.org/2000/svg" xmlns:xlink="http://www.w3.org/1999/xlink" version="1.1">
<metadata>
Created by FontForge 20161116 at Tue May 26 01:51:00 2015
 By Jimmy Warting
Copyright (c) 2012-2015, Omnibus-Type (www.omnibus-type.com omnibus.type@gmail.com)
</metadata>
<defs>
<font id="PragatiNarrow-Regular" horiz-adv-x="228" >
  <font-face 
    font-family="Pragati Narrow"
    font-weight="400"
    font-stretch="normal"
    units-per-em="1000"
    panose-1="2 11 5 6 2 2 2 2 11 4"
    ascent="800"
    descent="-200"
    x-height="484"
    cap-height="630"
    bbox="-495 -534 2104 1158"
    underline-thickness="50"
    underline-position="-100"
    unicode-range="U+000C-FB02"
  />
<missing-glyph horiz-adv-x="460" 
d="M0 644h460v-644h-460v644zM386 598h-312l156 -235zM46 556v-469l156 234zM414 556l-156 -235l156 -234v469zM230 281l-156 -235h312z" />
    <glyph glyph-name="fi" unicode="fi" horiz-adv-x="376" 
d="M210 661v-53h-40q-44 0 -44 -43v-81h84v-68h-84v-416h-75v416h-43v68h43v77q0 47 22.5 79t73.5 32q34 0 63 -11zM256 665h75v-91h-75v91zM256 484h75v-484h-75v484z" />
    <glyph glyph-name="fl" unicode="fl" horiz-adv-x="376" 
d="M210 661v-53h-40q-44 0 -44 -43v-81h84v-68h-84v-416h-75v416h-43v68h43v77q0 47 22.5 79t73.5 32q34 0 63 -11zM256 665h75v-665h-75v665z" />
    <glyph glyph-name=".notdef" horiz-adv-x="460" 
d="M0 644h460v-644h-460v644zM386 598h-312l156 -235zM46 556v-469l156 234zM414 556l-156 -235l156 -234v469zM230 281l-156 -235h312z" />
    <glyph glyph-name="NULL" horiz-adv-x="0" 
 />
    <glyph glyph-name="nonmarkingreturn" unicode="&#xd;" horiz-adv-x="0" 
 />
    <glyph glyph-name="space" unicode=" " horiz-adv-x="210" 
 />
    <glyph glyph-name="A" unicode="A" horiz-adv-x="503" 
d="M416 0l-43 140h-250l-43 -140h-81l201 630h104l199 -630h-87zM240.5 532.5q-4.5 -24.5 -8.5 -37.5l-86 -281h204l-85 281q-4 13 -9 37.5t-6 32.5h-4q-1 -8 -5.5 -32.5z" />
    <glyph glyph-name="Aacute" unicode="&#xc1;" horiz-adv-x="503" 
d="M260 691h-63l79 121h83l1 -3zM416 0l-43 140h-250l-43 -140h-81l201 630h104l199 -630h-87zM240.5 532.5q-4.5 -24.5 -8.5 -37.5l-86 -281h204l-85 281q-4 13 -9 37.5t-6 32.5h-4q-1 -8 -5.5 -32.5z" />
    <glyph glyph-name="Abreve" unicode="&#x102;" horiz-adv-x="503" 
d="M350.5 770.5q-14.5 -20.5 -40.5 -34t-59 -13.5t-59 13.5t-40 34t-14 41.5h59q3 -11 18 -21t36 -10q22 0 38 10t17 21h59q0 -21 -14.5 -41.5zM416 0l-43 140h-250l-43 -140h-81l201 630h104l199 -630h-87zM240.5 532.5q-4.5 -24.5 -8.5 -37.5l-86 -281h204l-85 281
q-4 13 -9 37.5t-6 32.5h-4q-1 -8 -5.5 -32.5z" />
    <glyph glyph-name="Acircumflex" unicode="&#xc2;" horiz-adv-x="503" 
d="M292 686l-40 73l-42 -73h-73l79 125h72l78 -125h-74zM416 0l-43 140h-250l-43 -140h-81l201 630h104l199 -630h-87zM240.5 532.5q-4.5 -24.5 -8.5 -37.5l-86 -281h204l-85 281q-4 13 -9 37.5t-6 32.5h-4q-1 -8 -5.5 -32.5z" />
    <glyph glyph-name="Adieresis" unicode="&#xc4;" horiz-adv-x="503" 
d="M142 725v87h81v-87h-81zM281 725v87h80v-87h-80zM416 0l-43 140h-250l-43 -140h-81l201 630h104l199 -630h-87zM240.5 532.5q-4.5 -24.5 -8.5 -37.5l-86 -281h204l-85 281q-4 13 -9 37.5t-6 32.5h-4q-1 -8 -5.5 -32.5z" />
    <glyph glyph-name="Agrave" unicode="&#xc0;" horiz-adv-x="503" 
d="M242 691l-98 118l1 3h82l79 -121h-64zM416 0l-43 140h-250l-43 -140h-81l201 630h104l199 -630h-87zM240.5 532.5q-4.5 -24.5 -8.5 -37.5l-86 -281h204l-85 281q-4 13 -9 37.5t-6 32.5h-4q-1 -8 -5.5 -32.5z" />
    <glyph glyph-name="Amacron" unicode="&#x100;" horiz-adv-x="503" 
d="M136 698v66h231v-66h-231zM416 0l-43 140h-250l-43 -140h-81l201 630h104l199 -630h-87zM240.5 532.5q-4.5 -24.5 -8.5 -37.5l-86 -281h204l-85 281q-4 13 -9 37.5t-6 32.5h-4q-1 -8 -5.5 -32.5z" />
    <glyph glyph-name="Aogonek" unicode="&#x104;" horiz-adv-x="503" 
d="M552 -107v-48q-31 -12 -56 -12q-35 0 -60.5 19.5t-25.5 63.5q0 27 9 44.5t27 39.5h-30l-43 140h-250l-43 -140h-81l201 630h104l199 -630q-10 -16 -15.5 -28t-5.5 -29q0 -22 10 -36t32 -14h28zM350 214l-85 281q-4 13 -9 37.5t-6 32.5h-4q-1 -8 -5.5 -32.5t-8.5 -37.5
l-86 -281h204z" />
    <glyph glyph-name="Aring" unicode="&#xc5;" horiz-adv-x="503" 
d="M314 815.5q25 -25.5 25 -62.5t-25.5 -62.5t-62.5 -25.5q-36 0 -62.5 25.5t-26.5 62.5t26 62.5t63 25.5q38 0 63 -25.5zM218 786q-14 -14 -14 -33t14 -33t33 -14t32.5 14t13.5 33t-13.5 33t-32.5 14t-33 -14zM416 0l-43 140h-250l-43 -140h-81l201 630h104l199 -630h-87z
M240.5 532.5q-4.5 -24.5 -8.5 -37.5l-86 -281h204l-85 281q-4 13 -9 37.5t-6 32.5h-4q-1 -8 -5.5 -32.5z" />
    <glyph glyph-name="Aringacute" unicode="&#x1fa;" horiz-adv-x="503" 
d="M224 780l65 100h82l1 -4l-85 -96h-63zM314.5 730q25.5 -25 25.5 -60q0 -38 -29 -64l192 -606h-87l-43 140h-250l-43 -140h-81l193 607q-13 12 -21 28.5t-8 34.5q0 36 26 60.5t63 24.5t62.5 -25zM219 702.5q-14 -13.5 -14 -32.5q0 -18 14 -31.5t33 -13.5t32.5 13.5
t13.5 31.5q0 19 -13.5 32.5t-32.5 13.5t-33 -13.5zM240.5 532.5q-4.5 -24.5 -8.5 -37.5l-86 -281h204l-85 281q-4 13 -9 37.5t-6 32.5h-4q-1 -8 -5.5 -32.5z" />
    <glyph glyph-name="Atilde" unicode="&#xc3;" horiz-adv-x="503" 
d="M365.5 746q-19.5 -29 -58.5 -29q-24 0 -56 15q-3 1 -18.5 7t-30.5 6q-28 0 -31 -28h-55q0 36 20 65.5t58 29.5q24 0 56 -15q4 -1 20 -7t31 -6q27 0 31 28h53q0 -37 -19.5 -66zM416 0l-43 140h-250l-43 -140h-81l201 630h104l199 -630h-87zM240.5 532.5
q-4.5 -24.5 -8.5 -37.5l-86 -281h204l-85 281q-4 13 -9 37.5t-6 32.5h-4q-1 -8 -5.5 -32.5z" />
    <glyph glyph-name="AE" unicode="&#xc6;" horiz-adv-x="754" 
d="M376 557l46 -197h252v-74h-235l48 -212h233v-74h-304l-31 140h-251l-54 -140h-81l258 630h457v-73h-338zM274 499l-112 -285h207l-62 285l-5 28q-1 9 -5 29h-4q-14 -45 -19 -57z" />
    <glyph glyph-name="AEacute" unicode="&#x1fc;" horiz-adv-x="754" 
d="M475 691h-63l79 121h83v-3zM376 557l46 -197h252v-74h-235l48 -212h233v-74h-304l-31 140h-251l-54 -140h-81l258 630h457v-73h-338zM274 499l-112 -285h207l-62 285l-5 28q-1 9 -5 29h-4q-14 -45 -19 -57z" />
    <glyph glyph-name="B" unicode="B" horiz-adv-x="503" 
d="M415.5 587.5q46.5 -42.5 46.5 -111.5q0 -52 -27.5 -91t-69.5 -54v-3q48 -16 79.5 -59t31.5 -102q0 -51 -24 -89t-64.5 -58t-89.5 -20h-239v630h239q71 0 117.5 -42.5zM275 360q45 0 73 29t28 70q0 48 -25.5 73t-69.5 25h-141v-197h135zM288 74q46 0 75 27.5t29 76.5
q0 44 -30.5 76t-79.5 32h-142v-212h148z" />
    <glyph glyph-name="C" unicode="C" horiz-adv-x="544" 
d="M446.5 581q59.5 -61 59.5 -179h-82q0 81 -37 123t-100 42q-83 0 -123.5 -57t-40.5 -172v-46q0 -115 40.5 -172t123.5 -57q65 0 102 41.5t37 121.5h80q0 -118 -59 -177.5t-160 -59.5q-123 0 -186 81.5t-63 244.5q0 327 249 327q100 0 159.5 -61z" />
    <glyph glyph-name="Cacute" unicode="&#x106;" horiz-adv-x="544" 
d="M294 691h-63l79 121h82l1 -3zM446.5 581q59.5 -61 59.5 -179h-82q0 81 -37 123t-100 42q-83 0 -123.5 -57t-40.5 -172v-46q0 -115 40.5 -172t123.5 -57q65 0 102 41.5t37 121.5h80q0 -118 -59 -177.5t-160 -59.5q-123 0 -186 81.5t-63 244.5q0 327 249 327
q100 0 159.5 -61z" />
    <glyph glyph-name="Ccaron" unicode="&#x10c;" horiz-adv-x="544" 
d="M157 812h74l41 -73l41 73h74l-80 -125h-72zM446.5 581q59.5 -61 59.5 -179h-82q0 81 -37 123t-100 42q-83 0 -123.5 -57t-40.5 -172v-46q0 -115 40.5 -172t123.5 -57q65 0 102 41.5t37 121.5h80q0 -118 -59 -177.5t-160 -59.5q-123 0 -186 81.5t-63 244.5q0 327 249 327
q100 0 159.5 -61z" />
    <glyph glyph-name="Ccedilla" unicode="&#xc7;" horiz-adv-x="544" 
d="M446.5 581q59.5 -61 59.5 -179h-82q0 81 -37 123t-100 42q-83 0 -123.5 -57t-40.5 -172v-46q0 -115 40.5 -172t123.5 -57q65 0 102 41.5t37 121.5h80q0 -118 -59 -177.5t-160 -59.5l-3 -22q33 -2 54 -16.5t21 -43.5q0 -41 -29 -57.5t-67 -16.5q-39 0 -77 7v45h70
q33 0 33 22q0 12 -7 17t-24 5h-31l10 64q-99 14 -149 95t-50 227q0 327 249 327q100 0 159.5 -61z" />
    <glyph glyph-name="Ccircumflex" unicode="&#x108;" horiz-adv-x="544" 
d="M274 759l-43 -73h-74l79 125h72l79 -125h-74zM446.5 581q59.5 -61 59.5 -179h-82q0 81 -37 123t-100 42q-83 0 -123.5 -57t-40.5 -172v-46q0 -115 40.5 -172t123.5 -57q65 0 102 41.5t37 121.5h80q0 -118 -59 -177.5t-160 -59.5q-123 0 -186 81.5t-63 244.5
q0 327 249 327q100 0 159.5 -61z" />
    <glyph glyph-name="Cdotaccent" unicode="&#x10a;" horiz-adv-x="544" 
d="M232 812h81v-87h-81v87zM446.5 581q59.5 -61 59.5 -179h-82q0 81 -37 123t-100 42q-83 0 -123.5 -57t-40.5 -172v-46q0 -115 40.5 -172t123.5 -57q65 0 102 41.5t37 121.5h80q0 -118 -59 -177.5t-160 -59.5q-123 0 -186 81.5t-63 244.5q0 327 249 327q100 0 159.5 -61z
" />
    <glyph glyph-name="D" unicode="D" horiz-adv-x="544" 
d="M260 630q114 0 176.5 -78t62.5 -228q0 -159 -62.5 -241.5t-176.5 -82.5h-196v630h196zM253 74q77 0 119.5 57.5t42.5 170.5v45q0 104 -42.5 157t-119.5 53h-107v-483h107z" />
    <glyph glyph-name="Eth" unicode="&#xd0;" horiz-adv-x="544" 
d="M64 630h196q114 0 176.5 -78t62.5 -228q0 -159 -62.5 -241.5t-176.5 -82.5h-196v297h-60v59h60v274zM289 356v-59h-143v-223h107q77 0 119.5 57.5t42.5 170.5v45q0 104 -42.5 157t-119.5 53h-107v-201h143z" />
    <glyph glyph-name="Dcaron" unicode="&#x10e;" horiz-adv-x="544" 
d="M157 812h74l41 -73l41 73h74l-80 -125h-72zM260 630q114 0 176.5 -78t62.5 -228q0 -159 -62.5 -241.5t-176.5 -82.5h-196v630h196zM253 74q77 0 119.5 57.5t42.5 170.5v45q0 104 -42.5 157t-119.5 53h-107v-483h107z" />
    <glyph glyph-name="Dcroat" unicode="&#x110;" horiz-adv-x="544" 
d="M64 630h196q114 0 176.5 -78t62.5 -228q0 -159 -62.5 -241.5t-176.5 -82.5h-196v297h-60v59h60v274zM289 356v-59h-143v-223h107q77 0 119.5 57.5t42.5 170.5v45q0 104 -42.5 157t-119.5 53h-107v-201h143z" />
    <glyph glyph-name="E" unicode="E" horiz-adv-x="503" 
d="M453 630v-73h-307v-197h267v-74h-267v-212h313v-74h-395v630h389z" />
    <glyph glyph-name="Eacute" unicode="&#xc9;" horiz-adv-x="503" 
d="M260 691h-63l79 121h83l1 -3zM146 557v-197h267v-74h-267v-212h313v-74h-395v630h389v-73h-307z" />
    <glyph glyph-name="Ebreve" unicode="&#x114;" horiz-adv-x="503" 
d="M350.5 770.5q-14.5 -20.5 -40.5 -34t-59 -13.5t-59 13.5t-40 34t-14 41.5h59q3 -11 18 -21t36 -10q22 0 38 10t17 21h59q0 -21 -14.5 -41.5zM453 630v-73h-307v-197h267v-74h-267v-212h313v-74h-395v630h389z" />
    <glyph glyph-name="Ecaron" unicode="&#x11a;" horiz-adv-x="503" 
d="M137 812h73l41 -73l41 73h74l-79 -125h-72zM453 630v-73h-307v-197h267v-74h-267v-212h313v-74h-395v630h389z" />
    <glyph glyph-name="Ecircumflex" unicode="&#xca;" horiz-adv-x="503" 
d="M252 759l-42 -73h-73l79 125h72l78 -125h-74zM453 630v-73h-307v-197h267v-74h-267v-212h313v-74h-395v630h389z" />
    <glyph glyph-name="Edieresis" unicode="&#xcb;" horiz-adv-x="503" 
d="M142 725v87h81v-87h-81zM281 725v87h80v-87h-80zM146 557v-197h267v-74h-267v-212h313v-74h-395v630h389v-73h-307z" />
    <glyph glyph-name="Edotaccent" unicode="&#x116;" horiz-adv-x="503" 
d="M211 812h80v-87h-80v87zM453 630v-73h-307v-197h267v-74h-267v-212h313v-74h-395v630h389z" />
    <glyph glyph-name="Egrave" unicode="&#xc8;" horiz-adv-x="503" 
d="M242 691l-98 118l1 3h82l79 -121h-64zM146 557v-197h267v-74h-267v-212h313v-74h-395v630h389v-73h-307z" />
    <glyph glyph-name="Emacron" unicode="&#x112;" horiz-adv-x="503" 
d="M136 764h231v-66h-231v66zM453 630v-73h-307v-197h267v-74h-267v-212h313v-74h-395v630h389z" />
    <glyph glyph-name="Eogonek" unicode="&#x118;" horiz-adv-x="503" 
d="M146 360h267v-74h-267v-212h313v-74q-22 -28 -22 -57q0 -22 10 -36t32 -14h29v-48q-34 -12 -57 -12q-35 0 -60.5 19.5t-25.5 63.5q0 26 9 46t25 38h-335v630h389v-73h-307v-197z" />
    <glyph glyph-name="F" unicode="F" horiz-adv-x="461" 
d="M428 630v-73h-282v-204h249v-73h-249v-280h-82v630h364z" />
    <glyph glyph-name="G" unicode="G" horiz-adv-x="587" 
d="M281 329h246v-329h-54l-17 70q-54 -81 -163 -81q-121 0 -184.5 82t-63.5 244t66 244.5t186 82.5q104 0 167 -58t63 -168h-83q0 76 -39 113.5t-108 37.5q-79 0 -123 -58t-44 -171v-46q0 -115 41.5 -172t121.5 -57q78 0 114.5 44.5t36.5 134.5v16h-163v71z" />
    <glyph glyph-name="Gbreve" unicode="&#x11e;" horiz-adv-x="587" 
d="M234 736.5q-26 13.5 -40 34t-14 41.5h59q2 -11 17.5 -21t36.5 -10q22 0 37.5 10t17.5 21h60q0 -21 -14.5 -41.5t-40.5 -34t-60 -13.5q-33 0 -59 13.5zM281 329h246v-329h-54l-17 70q-54 -81 -163 -81q-121 0 -184.5 82t-63.5 244t66 244.5t186 82.5q104 0 167 -58
t63 -168h-83q0 76 -39 113.5t-108 37.5q-79 0 -123 -58t-44 -171v-46q0 -115 41.5 -172t121.5 -57q78 0 114.5 44.5t36.5 134.5v16h-163v71z" />
    <glyph glyph-name="Gcircumflex" unicode="&#x11c;" horiz-adv-x="587" 
d="M253 686h-74l79 125h72l78 -125h-73l-41 73zM281 329h246v-329h-54l-17 70q-54 -81 -163 -81q-121 0 -184.5 82t-63.5 244t66 244.5t186 82.5q104 0 167 -58t63 -168h-83q0 76 -39 113.5t-108 37.5q-79 0 -123 -58t-44 -171v-46q0 -115 41.5 -172t121.5 -57
q78 0 114.5 44.5t36.5 134.5v16h-163v71z" />
    <glyph glyph-name="Gcommaaccent" unicode="&#x122;" horiz-adv-x="587" 
d="M281 329h246v-329h-54l-17 70q-54 -81 -163 -81q-121 0 -184.5 82t-63.5 244t66 244.5t186 82.5q104 0 167 -58t63 -168h-83q0 76 -39 113.5t-108 37.5q-79 0 -123 -58t-44 -171v-46q0 -115 41.5 -172t121.5 -57q78 0 114.5 44.5t36.5 134.5v16h-163v71zM255 -55h78v-77
l-27 -72h-41l21 66h-31v83z" />
    <glyph glyph-name="Gdotaccent" unicode="&#x120;" horiz-adv-x="587" 
d="M334 725h-80v87h80v-87zM281 329h246v-329h-54l-17 70q-54 -81 -163 -81q-121 0 -184.5 82t-63.5 244t66 244.5t186 82.5q104 0 167 -58t63 -168h-83q0 76 -39 113.5t-108 37.5q-79 0 -123 -58t-44 -171v-46q0 -115 41.5 -172t121.5 -57q78 0 114.5 44.5t36.5 134.5v16
h-163v71z" />
    <glyph glyph-name="H" unicode="H" horiz-adv-x="544" 
d="M399 0v286h-253v-286h-82v630h82v-270h253v270h80v-630h-80z" />
    <glyph glyph-name="Hbar" unicode="&#x126;" horiz-adv-x="544" 
d="M479 0h-80v282h-253v-282h-82v450h-45v67h45v113h82v-113h253v113h80v-113h47v-67h-47v-450zM146 450v-95h253v95h-253z" />
    <glyph glyph-name="Hcircumflex" unicode="&#x124;" horiz-adv-x="544" 
d="M313 686l-39 73l-43 -73h-74l79 125h72l79 -125h-74zM399 0v286h-253v-286h-82v630h82v-270h253v270h80v-630h-80z" />
    <glyph glyph-name="I" unicode="I" horiz-adv-x="210" 
d="M64 630h82v-630h-82v630z" />
    <glyph glyph-name="IJ" unicode="&#x132;" horiz-adv-x="587" 
d="M64 0v630h82v-630h-82zM487 30.5q-40 -41.5 -113 -41.5t-112.5 41.5t-39.5 119.5v41h81v-45q0 -40 18.5 -61.5t52.5 -21.5q35 0 53.5 21.5t18.5 61.5v484h81v-480q0 -78 -40 -119.5z" />
    <glyph glyph-name="Iacute" unicode="&#xcd;" horiz-adv-x="210" 
d="M114 691h-63l79 121h81l1 -3zM64 0v630h82v-630h-82z" />
    <glyph glyph-name="Ibreve" unicode="&#x12c;" horiz-adv-x="210" 
d="M204 770.5q-14 -20.5 -39.5 -34t-59.5 -13.5q-33 0 -59 13.5t-40.5 34t-14.5 41.5h60q2 -11 17.5 -21t36.5 -10q22 0 37.5 10t17.5 21h58q0 -21 -14 -41.5zM64 630h82v-630h-82v630z" />
    <glyph glyph-name="Icircumflex" unicode="&#xce;" horiz-adv-x="210" 
d="M106 759l-42 -73h-74l80 125h71l78 -125h-72zM64 630h82v-630h-82v630z" />
    <glyph glyph-name="Idieresis" unicode="&#xcf;" horiz-adv-x="210" 
d="M-4 725v87h80v-87h-80zM134 725v87h80v-87h-80zM64 0v630h82v-630h-82z" />
    <glyph glyph-name="Idotaccent" unicode="&#x130;" horiz-adv-x="210" 
d="M66 812h80v-87h-80v87zM64 630h82v-630h-82v630z" />
    <glyph glyph-name="Igrave" unicode="&#xcc;" horiz-adv-x="210" 
d="M97 691l-100 118l1 3h83l79 -121h-63zM64 0v630h82v-630h-82z" />
    <glyph glyph-name="Imacron" unicode="&#x12a;" horiz-adv-x="210" 
d="M-10 764h230v-66h-230v66zM64 630h82v-630h-82v630z" />
    <glyph glyph-name="Iogonek" unicode="&#x12e;" horiz-adv-x="210" 
d="M129 -28q-6 -12 -6 -29q0 -21 10.5 -35.5t31.5 -14.5h29v-48q-31 -12 -56 -12q-35 0 -60.5 19.5t-25.5 63.5q0 27 8.5 46.5t24.5 37.5h-21v630h82v-630q-11 -16 -17 -28z" />
    <glyph glyph-name="Itilde" unicode="&#x128;" horiz-adv-x="210" 
d="M219 746.5q-20 -29.5 -58 -29.5q-13 0 -25 3.5t-29 10.5q-34 14 -52 14q-27 0 -31 -28h-53q0 36 20 65.5t58 29.5q21 0 55 -14q13 -5 26 -9.5t25 -4.5q27 0 31 28h53q0 -36 -20 -65.5zM64 630h82v-630h-82v630z" />
    <glyph glyph-name="J" unicode="J" horiz-adv-x="376" 
d="M277 30.5q-40 -41.5 -113 -41.5t-113 41.5t-40 119.5v41h82v-45q0 -40 18.5 -61.5t52.5 -21.5q35 0 53.5 21.5t18.5 61.5v484h81v-480q0 -78 -40 -119.5z" />
    <glyph glyph-name="Jcircumflex" unicode="&#x134;" horiz-adv-x="376" 
d="M319 686l-40 73l-43 -73h-74l79 125h72l79 -125h-73zM277 30.5q-40 -41.5 -113 -41.5t-113 41.5t-40 119.5v41h82v-45q0 -40 18.5 -61.5t52.5 -21.5q35 0 53.5 21.5t18.5 61.5v484h81v-480q0 -78 -40 -119.5z" />
    <glyph glyph-name="K" unicode="K" horiz-adv-x="503" 
d="M486 630l-190 -254l196 -376h-92l-154 308l-100 -112v-196h-82v630h82v-333l249 333h91z" />
    <glyph glyph-name="Kcommaaccent" unicode="&#x136;" horiz-adv-x="503" 
d="M486 630l-190 -254l196 -376h-92l-154 308l-100 -112v-196h-82v630h82v-333l249 333h91zM224 -204l19 66h-31v83h78v-77l-26 -72h-40z" />
    <glyph glyph-name="L" unicode="L" horiz-adv-x="419" 
d="M402 74v-74h-338v630h82v-556h256z" />
    <glyph glyph-name="Lacute" unicode="&#x139;" horiz-adv-x="419" 
d="M111 691h-64l79 121h83l1 -3zM402 74v-74h-338v630h82v-556h256z" />
    <glyph glyph-name="Lcaron" unicode="&#x13d;" horiz-adv-x="419" 
d="M402 74v-74h-338v630h82v-556h256zM341 417h-48l37 114h-37v99h92v-90z" />
    <glyph glyph-name="Lcommaaccent" unicode="&#x13b;" horiz-adv-x="419" 
d="M402 74v-74h-338v630h82v-556h256zM223 -204h-42l21 66h-31v83h79v-77z" />
    <glyph glyph-name="Ldot" unicode="&#x13f;" horiz-adv-x="419" 
d="M402 74v-74h-338v630h82v-556h256zM271 381v102h93v-102h-93z" />
    <glyph glyph-name="Lslash" unicode="&#x141;" horiz-adv-x="419" 
d="M271 475v-67l-125 -111v-223h256v-74h-338v226l-64 -56v64l64 57v339h82v-267z" />
    <glyph glyph-name="M" unicode="M" horiz-adv-x="628" 
d="M490 0v458q1 24 3 54.5t3 42.5h-3l-6 -26q-2 -9 -6.5 -31t-9.5 -40l-126 -458h-71l-127 458q-6 22 -14 68l-5 29h-4q1 -13 3 -43.5t3 -53.5v-458h-73v630h123l111 -413q8 -29 14.5 -77.5t7.5 -64.5h3q1 16 7 65.5t14 76.5l111 413h123v-630h-81z" />
    <glyph glyph-name="N" unicode="N" horiz-adv-x="544" 
d="M413 0l-236 401q-10 17 -23.5 46.5t-17.5 39.5l-3 -1q1 -10 2.5 -35.5t1.5 -49.5v-401h-73v630h70l234 -396q9 -15 22.5 -44.5t17.5 -39.5l2 1l-2 83v396h71v-630h-66z" />
    <glyph glyph-name="Nacute" unicode="&#x143;" horiz-adv-x="544" 
d="M282 691h-65l79 121h83l1 -3zM413 0l-236 401q-10 17 -23.5 46.5t-17.5 39.5l-3 -1q1 -10 2.5 -35.5t1.5 -49.5v-401h-73v630h70l234 -396q9 -15 22.5 -44.5t17.5 -39.5l2 1l-2 83v396h71v-630h-66z" />
    <glyph glyph-name="Ncaron" unicode="&#x147;" horiz-adv-x="544" 
d="M235 687l-78 125h74l41 -73l41 73h74l-80 -125h-72zM413 0l-236 401q-10 17 -23.5 46.5t-17.5 39.5l-3 -1q1 -10 2.5 -35.5t1.5 -49.5v-401h-73v630h70l234 -396q9 -15 22.5 -44.5t17.5 -39.5l2 1l-2 83v396h71v-630h-66z" />
    <glyph glyph-name="Ncommaaccent" unicode="&#x145;" horiz-adv-x="544" 
d="M413 0l-236 401q-10 17 -23.5 46.5t-17.5 39.5l-3 -1q1 -10 2.5 -35.5t1.5 -49.5v-401h-73v630h70l234 -396q9 -15 22.5 -44.5t17.5 -39.5l2 1l-2 83v396h71v-630h-66zM285 -204h-42l22 66h-32v83h79v-77z" />
    <glyph glyph-name="Eng" unicode="&#x14a;" horiz-adv-x="544" 
d="M457 -135.5q-22 -31.5 -72 -31.5q-35 0 -64 11v52h40q44 0 44 45v73l-228 387q-10 17 -23.5 46.5t-17.5 39.5l-3 -1q1 -10 2.5 -35.5t1.5 -49.5v-401h-73v630h70l234 -396q9 -15 22.5 -44.5t17.5 -39.5l2 1l-2 83l-3 396h74v-686q0 -48 -22 -79.5z" />
    <glyph glyph-name="Ntilde" unicode="&#xd1;" horiz-adv-x="544" 
d="M387 746.5q-20 -29.5 -58 -29.5q-14 0 -26.5 4t-30.5 11q-32 13 -49 13q-28 0 -32 -28h-53q0 36 20 65.5t58 29.5q24 0 56 -15q3 -1 18.5 -7t30.5 -6q14 0 22 6t10 22h54q0 -36 -20 -65.5zM413 0l-236 401q-10 17 -23.5 46.5t-17.5 39.5l-3 -1q1 -10 2.5 -35.5t1.5 -49.5
v-401h-73v630h70l234 -396q9 -15 22.5 -44.5t17.5 -39.5l2 1l-2 83v396h71v-630h-66z" />
    <glyph glyph-name="O" unicode="O" horiz-adv-x="587" 
d="M477 559.5q65 -82.5 65 -244.5q0 -161 -65.5 -243.5t-183.5 -82.5t-183 82.5t-65 243.5q0 162 65 244.5t183 82.5q119 0 184 -82.5zM173 509q-43 -58 -43 -171v-46q0 -113 43 -171t120 -58t120.5 58t43.5 171v46q0 113 -43.5 171t-120.5 58t-120 -58z" />
    <glyph glyph-name="Oacute" unicode="&#xd3;" horiz-adv-x="587" 
d="M303 691h-64l79 121h82l1 -3zM477 559.5q65 -82.5 65 -244.5q0 -161 -65.5 -243.5t-183.5 -82.5t-183 82.5t-65 243.5q0 162 65 244.5t183 82.5q119 0 184 -82.5zM173 509q-43 -58 -43 -171v-46q0 -113 43 -171t120 -58t120.5 58t43.5 171v46q0 113 -43.5 171t-120.5 58
t-120 -58z" />
    <glyph glyph-name="Obreve" unicode="&#x14e;" horiz-adv-x="587" 
d="M393.5 770.5q-14.5 -20.5 -40.5 -34t-60 -13.5q-33 0 -59 13.5t-40 34t-14 41.5h59q2 -11 17.5 -21t36.5 -10q22 0 37.5 10t17.5 21h60q0 -21 -14.5 -41.5zM477 559.5q65 -82.5 65 -244.5q0 -161 -65.5 -243.5t-183.5 -82.5t-183 82.5t-65 243.5q0 162 65 244.5t183 82.5
q119 0 184 -82.5zM173 509q-43 -58 -43 -171v-46q0 -113 43 -171t120 -58t120.5 58t43.5 171v46q0 113 -43.5 171t-120.5 58t-120 -58z" />
    <glyph glyph-name="Ocircumflex" unicode="&#xd4;" horiz-adv-x="587" 
d="M294 759l-41 -73h-74l79 125h72l78 -125h-73zM477 559.5q65 -82.5 65 -244.5q0 -161 -65.5 -243.5t-183.5 -82.5t-183 82.5t-65 243.5q0 162 65 244.5t183 82.5q119 0 184 -82.5zM173 509q-43 -58 -43 -171v-46q0 -113 43 -171t120 -58t120.5 58t43.5 171v46
q0 113 -43.5 171t-120.5 58t-120 -58z" />
    <glyph glyph-name="Odieresis" unicode="&#xd6;" horiz-adv-x="587" 
d="M185 725v87h80v-87h-80zM322 725v87h80v-87h-80zM477 559.5q65 -82.5 65 -244.5q0 -161 -65.5 -243.5t-183.5 -82.5t-183 82.5t-65 243.5q0 162 65 244.5t183 82.5q119 0 184 -82.5zM173 509q-43 -58 -43 -171v-46q0 -113 43 -171t120 -58t120.5 58t43.5 171v46
q0 113 -43.5 171t-120.5 58t-120 -58z" />
    <glyph glyph-name="Ograve" unicode="&#xd2;" horiz-adv-x="587" 
d="M285 691l-99 118v3h83l79 -121h-63zM477 559.5q65 -82.5 65 -244.5q0 -161 -65.5 -243.5t-183.5 -82.5t-183 82.5t-65 243.5q0 162 65 244.5t183 82.5q119 0 184 -82.5zM173 509q-43 -58 -43 -171v-46q0 -113 43 -171t120 -58t120.5 58t43.5 171v46q0 113 -43.5 171
t-120.5 58t-120 -58z" />
    <glyph glyph-name="Ohungarumlaut" unicode="&#x150;" horiz-adv-x="587" 
d="M268 691h-62l57 121h81l1 -3zM389 691h-63l57 121h82l1 -3zM477 559.5q65 -82.5 65 -244.5q0 -161 -65.5 -243.5t-183.5 -82.5t-183 82.5t-65 243.5q0 162 65 244.5t183 82.5q119 0 184 -82.5zM173 509q-43 -58 -43 -171v-46q0 -113 43 -171t120 -58t120.5 58t43.5 171
v46q0 113 -43.5 171t-120.5 58t-120 -58z" />
    <glyph glyph-name="Omacron" unicode="&#x14c;" horiz-adv-x="587" 
d="M178 764h231v-66h-231v66zM477 559.5q65 -82.5 65 -244.5q0 -161 -65.5 -243.5t-183.5 -82.5t-183 82.5t-65 243.5q0 162 65 244.5t183 82.5q119 0 184 -82.5zM173 509q-43 -58 -43 -171v-46q0 -113 43 -171t120 -58t120.5 58t43.5 171v46q0 113 -43.5 171t-120.5 58
t-120 -58z" />
    <glyph glyph-name="Oslash" unicode="&#xd8;" horiz-adv-x="587" 
d="M542 315q0 -161 -65.5 -243.5t-183.5 -82.5q-87 0 -146 45l-42 -68h-59l65 104q-66 83 -66 245t65 244.5t183 82.5q86 0 147 -46l43 69h59l-67 -105q67 -86 67 -245zM173 509q-43 -58 -43 -171v-46q0 -93 28 -146l239 381q-41 40 -104 40q-77 0 -120 -58zM293 63
q77 0 120.5 58t43.5 171v46q0 91 -29 147l-239 -383q41 -39 104 -39z" />
    <glyph glyph-name="Oslashacute" unicode="&#x1fe;" horiz-adv-x="587" 
d="M303 691h-64l79 121h82l1 -3zM542 315q0 -161 -65.5 -243.5t-183.5 -82.5q-87 0 -146 45l-42 -68h-59l65 104q-66 83 -66 245t65 244.5t183 82.5q86 0 147 -46l43 69h59l-67 -105q67 -86 67 -245zM173 509q-43 -58 -43 -171v-46q0 -93 28 -146l239 381q-41 40 -104 40
q-77 0 -120 -58zM293 63q77 0 120.5 58t43.5 171v46q0 91 -29 147l-239 -383q41 -39 104 -39z" />
    <glyph glyph-name="Otilde" unicode="&#xd5;" horiz-adv-x="587" 
d="M407.5 746q-19.5 -29 -58.5 -29q-13 0 -25 3.5t-29 10.5q-34 14 -52 14q-27 0 -31 -28h-53q0 36 20 65.5t58 29.5q14 0 26.5 -4t29.5 -11q3 -1 18.5 -7t31.5 -6q14 0 21.5 6t9.5 22h53q0 -37 -19.5 -66zM477 559.5q65 -82.5 65 -244.5q0 -161 -65.5 -243.5t-183.5 -82.5
t-183 82.5t-65 243.5q0 162 65 244.5t183 82.5q119 0 184 -82.5zM173 509q-43 -58 -43 -171v-46q0 -113 43 -171t120 -58t120.5 58t43.5 171v46q0 113 -43.5 171t-120.5 58t-120 -58z" />
    <glyph glyph-name="OE" unicode="&#x152;" horiz-adv-x="754" 
d="M391 568v62h325v-73h-245v-197h203v-74h-203v-212h250v-74h-330v62q-50 -73 -140 -73q-98 0 -152 82.5t-54 243.5q0 162 53.5 244.5t152.5 82.5q89 0 140 -74zM164 509q-34 -58 -34 -171v-46q0 -113 34 -171t96 -58t96.5 58t34.5 171v46q0 113 -34.5 171t-96.5 58
t-96 -58z" />
    <glyph glyph-name="P" unicode="P" horiz-adv-x="503" 
d="M64 0v630h225q92 0 140.5 -49.5t48.5 -133.5t-51 -135.5t-138 -51.5h-143v-260h-82zM287 334q49 0 77.5 31t28.5 82q0 52 -27.5 81t-78.5 29h-141v-223h141z" />
    <glyph glyph-name="Thorn" unicode="&#xde;" horiz-adv-x="503" 
d="M289 505q92 0 140.5 -49.5t48.5 -134.5q0 -84 -50.5 -135t-138.5 -51h-143v-135h-82v630h82v-125h143zM146 209h141q48 0 77 30.5t29 81.5q0 52 -27.5 81.5t-78.5 29.5h-141v-223z" />
    <glyph glyph-name="Q" unicode="Q" horiz-adv-x="587" 
d="M110 559.5q65 82.5 183 82.5q119 0 184 -82.5t65 -244.5q0 -123 -39 -201t-111 -108l130 -120h-108l-109 103h-12q-118 0 -183 82.5t-65 243.5q0 162 65 244.5zM173 121q43 -58 120 -58t120.5 58t43.5 171v46q0 113 -43.5 171t-120.5 58t-120 -58t-43 -171v-46
q0 -113 43 -171z" />
    <glyph glyph-name="R" unicode="R" horiz-adv-x="544" 
d="M457.5 583q48.5 -47 48.5 -127q0 -59 -29.5 -102t-82.5 -61l127 -293h-89l-118 279h-168v-279h-82v630h254q91 0 139.5 -47zM146 353h169q49 0 78 28t29 75q0 48 -27.5 74.5t-79.5 26.5h-169v-204z" />
    <glyph glyph-name="Racute" unicode="&#x154;" horiz-adv-x="544" 
d="M261 691h-64l79 121h83l1 -3zM457.5 583q48.5 -47 48.5 -127q0 -59 -29.5 -102t-82.5 -61l127 -293h-89l-118 279h-168v-279h-82v630h254q91 0 139.5 -47zM146 353h169q49 0 78 28t29 75q0 48 -27.5 74.5t-79.5 26.5h-169v-204z" />
    <glyph glyph-name="Rcaron" unicode="&#x158;" horiz-adv-x="544" 
d="M235 687l-78 125h74l41 -73l41 73h74l-80 -125h-72zM457.5 583q48.5 -47 48.5 -127q0 -59 -29.5 -102t-82.5 -61l127 -293h-89l-118 279h-168v-279h-82v630h254q91 0 139.5 -47zM146 353h169q49 0 78 28t29 75q0 48 -27.5 74.5t-79.5 26.5h-169v-204z" />
    <glyph glyph-name="Rcommaaccent" unicode="&#x156;" horiz-adv-x="544" 
d="M457.5 583q48.5 -47 48.5 -127q0 -59 -29.5 -102t-82.5 -61l127 -293h-89l-118 279h-168v-279h-82v630h254q91 0 139.5 -47zM146 353h169q49 0 78 28t29 75q0 48 -27.5 74.5t-79.5 26.5h-169v-204zM285 -204h-42l22 66h-32v83h79v-77z" />
    <glyph glyph-name="S" unicode="S" horiz-adv-x="503" 
d="M393.5 598q54.5 -44 54.5 -134v-11h-83v14q0 47 -31.5 73.5t-80.5 26.5q-53 0 -85 -22t-32 -66q0 -32 18.5 -52.5t46 -33t75.5 -28.5q61 -20 98 -38t63.5 -53t26.5 -92q0 -100 -58 -146.5t-156 -46.5q-94 0 -153.5 46t-59.5 143l1 19h85l-1 -19q0 -56 34 -85.5t90 -29.5
q64 0 98.5 27t34.5 78q0 34 -18.5 56t-46.5 34.5t-77 28.5q-60 20 -97 38t-63 53.5t-26 93.5q0 84 56 127t144 43t142.5 -44z" />
    <glyph glyph-name="Sacute" unicode="&#x15a;" horiz-adv-x="503" 
d="M260 691h-63l79 121h83l1 -3zM393.5 598q54.5 -44 54.5 -134v-11h-83v14q0 47 -31.5 73.5t-80.5 26.5q-53 0 -85 -22t-32 -66q0 -32 18.5 -52.5t46 -33t75.5 -28.5q61 -20 98 -38t63.5 -53t26.5 -92q0 -100 -58 -146.5t-156 -46.5q-94 0 -153.5 46t-59.5 143l1 19h85
l-1 -19q0 -56 34 -85.5t90 -29.5q64 0 98.5 27t34.5 78q0 34 -18.5 56t-46.5 34.5t-77 28.5q-60 20 -97 38t-63 53.5t-26 93.5q0 84 56 127t144 43t142.5 -44z" />
    <glyph glyph-name="Scaron" unicode="&#x160;" horiz-adv-x="503" 
d="M137 812h73l41 -73l41 73h74l-79 -125h-72zM393.5 598q54.5 -44 54.5 -134v-11h-83v14q0 47 -31.5 73.5t-80.5 26.5q-53 0 -85 -22t-32 -66q0 -32 18.5 -52.5t46 -33t75.5 -28.5q61 -20 98 -38t63.5 -53t26.5 -92q0 -100 -58 -146.5t-156 -46.5q-94 0 -153.5 46
t-59.5 143l1 19h85l-1 -19q0 -56 34 -85.5t90 -29.5q64 0 98.5 27t34.5 78q0 34 -18.5 56t-46.5 34.5t-77 28.5q-60 20 -97 38t-63 53.5t-26 93.5q0 84 56 127t144 43t142.5 -44z" />
    <glyph glyph-name="Scedilla" unicode="&#x15e;" horiz-adv-x="503" 
d="M393.5 598q54.5 -44 54.5 -134v-11h-83v14q0 47 -31.5 73.5t-80.5 26.5q-53 0 -85 -22t-32 -66q0 -32 18.5 -52.5t46 -33t75.5 -28.5q61 -20 98 -38t63.5 -53t26.5 -92q0 -96 -53 -142t-145 -50l-2 -23q33 -2 53.5 -16t20.5 -44q0 -41 -29 -57.5t-67 -16.5t-77 7v45h70
q17 0 25 5t8 17t-7 17t-24 5h-30l9 62q-82 7 -130.5 52.5t-48.5 134.5l1 19h85l-1 -19q0 -56 34 -85.5t90 -29.5q64 0 98.5 27t34.5 78q0 34 -18.5 56t-46.5 34.5t-77 28.5q-60 20 -97 38t-63 53.5t-26 93.5q0 84 56 127t144 43t142.5 -44z" />
    <glyph glyph-name="Scircumflex" unicode="&#x15c;" horiz-adv-x="503" 
d="M252 759l-42 -73h-73l79 125h72l78 -125h-74zM393.5 598q54.5 -44 54.5 -134v-11h-83v14q0 47 -31.5 73.5t-80.5 26.5q-53 0 -85 -22t-32 -66q0 -32 18.5 -52.5t46 -33t75.5 -28.5q61 -20 98 -38t63.5 -53t26.5 -92q0 -100 -58 -146.5t-156 -46.5q-94 0 -153.5 46
t-59.5 143l1 19h85l-1 -19q0 -56 34 -85.5t90 -29.5q64 0 98.5 27t34.5 78q0 34 -18.5 56t-46.5 34.5t-77 28.5q-60 20 -97 38t-63 53.5t-26 93.5q0 84 56 127t144 43t142.5 -44z" />
    <glyph glyph-name="Scommaaccent" unicode="&#x218;" horiz-adv-x="503" 
d="M37 0zM393.5 598q54.5 -44 54.5 -134v-11h-83v14q0 47 -31.5 73.5t-80.5 26.5q-53 0 -85 -22t-32 -66q0 -32 18.5 -52.5t46 -33t75.5 -28.5q61 -20 98 -38t63.5 -53t26.5 -92q0 -100 -58 -146.5t-156 -46.5q-94 0 -153.5 46t-59.5 143l1 19h85l-1 -19q0 -56 34 -85.5
t90 -29.5q64 0 98.5 27t34.5 78q0 34 -18.5 56t-46.5 34.5t-77 28.5q-60 20 -97 38t-63 53.5t-26 93.5q0 84 56 127t144 43t142.5 -44zM222 -204l22 66h-31v83h78v-77l-27 -72h-42z" />
    <glyph glyph-name="T" unicode="T" horiz-adv-x="461" 
d="M270 557v-557h-81v557h-171v73h424v-73h-172z" />
    <glyph glyph-name="Tbar" unicode="&#x166;" horiz-adv-x="461" 
d="M270 557v-196h121v-67h-121v-294h-81v294h-118v67h118v196h-171v73h424v-73h-172z" />
    <glyph glyph-name="Tcaron" unicode="&#x164;" horiz-adv-x="461" 
d="M194 687l-79 125h74l41 -73l41 73h73l-79 -125h-71zM270 557v-557h-81v557h-171v73h424v-73h-172z" />
    <glyph glyph-name="uni0162" unicode="&#x162;" horiz-adv-x="461" 
d="M247 0l-5 -33q33 -2 54 -16.5t21 -43.5q0 -41 -29 -57.5t-67 -16.5t-77 7v45h70q33 0 33 22q0 12 -7 17t-24 5h-30l11 71h-8v557h-171v73h424v-73h-172v-557h-23z" />
    <glyph glyph-name="uni021A" unicode="&#x21a;" horiz-adv-x="461" 
d="M270 557v-557h-81v557h-171v73h424v-73h-172zM242 -204h-40l21 66h-32v83h78v-77z" />
    <glyph glyph-name="U" unicode="U" horiz-adv-x="544" 
d="M424.5 44.5q-54.5 -55.5 -152.5 -55.5q-99 0 -153.5 55.5t-54.5 160.5v425h82v-429q0 -67 33 -102.5t93 -35.5q61 0 94 35.5t33 102.5v429h80v-425q0 -105 -54.5 -160.5z" />
    <glyph glyph-name="Uacute" unicode="&#xda;" horiz-adv-x="544" 
d="M282 691h-65l79 121h83l1 -3zM424.5 44.5q-54.5 -55.5 -152.5 -55.5q-99 0 -153.5 55.5t-54.5 160.5v425h82v-429q0 -67 33 -102.5t93 -35.5q61 0 94 35.5t33 102.5v429h80v-425q0 -105 -54.5 -160.5z" />
    <glyph glyph-name="Ubreve" unicode="&#x16c;" horiz-adv-x="544" 
d="M372 770.5q-14 -20.5 -40 -34t-60 -13.5q-33 0 -59 13.5t-40.5 34t-14.5 41.5h60q2 -11 17 -21t37 -10t38 10t18 21h58q0 -21 -14 -41.5zM424.5 44.5q-54.5 -55.5 -152.5 -55.5q-99 0 -153.5 55.5t-54.5 160.5v425h82v-429q0 -67 33 -102.5t93 -35.5q61 0 94 35.5
t33 102.5v429h80v-425q0 -105 -54.5 -160.5z" />
    <glyph glyph-name="Ucircumflex" unicode="&#xdb;" horiz-adv-x="544" 
d="M313 686l-39 73l-43 -73h-74l79 125h72l79 -125h-74zM424.5 44.5q-54.5 -55.5 -152.5 -55.5q-99 0 -153.5 55.5t-54.5 160.5v425h82v-429q0 -67 33 -102.5t93 -35.5q61 0 94 35.5t33 102.5v429h80v-425q0 -105 -54.5 -160.5z" />
    <glyph glyph-name="Udieresis" unicode="&#xdc;" horiz-adv-x="544" 
d="M162 725v87h80v-87h-80zM301 725v87h81v-87h-81zM424.5 44.5q-54.5 -55.5 -152.5 -55.5q-99 0 -153.5 55.5t-54.5 160.5v425h82v-429q0 -67 33 -102.5t93 -35.5q61 0 94 35.5t33 102.5v429h80v-425q0 -105 -54.5 -160.5z" />
    <glyph glyph-name="Ugrave" unicode="&#xd9;" horiz-adv-x="544" 
d="M264 691l-101 118l1 3h85l78 -121h-63zM424.5 44.5q-54.5 -55.5 -152.5 -55.5q-99 0 -153.5 55.5t-54.5 160.5v425h82v-429q0 -67 33 -102.5t93 -35.5q61 0 94 35.5t33 102.5v429h80v-425q0 -105 -54.5 -160.5z" />
    <glyph glyph-name="Uhungarumlaut" unicode="&#x170;" horiz-adv-x="544" 
d="M248 691h-64l57 121h82l1 -3zM367 691h-62l56 121h82l1 -3zM424.5 44.5q-54.5 -55.5 -152.5 -55.5q-99 0 -153.5 55.5t-54.5 160.5v425h82v-429q0 -67 33 -102.5t93 -35.5q61 0 94 35.5t33 102.5v429h80v-425q0 -105 -54.5 -160.5z" />
    <glyph glyph-name="Umacron" unicode="&#x16a;" horiz-adv-x="544" 
d="M157 698v66h230v-66h-230zM424.5 44.5q-54.5 -55.5 -152.5 -55.5q-99 0 -153.5 55.5t-54.5 160.5v425h82v-429q0 -67 33 -102.5t93 -35.5q61 0 94 35.5t33 102.5v429h80v-425q0 -105 -54.5 -160.5z" />
    <glyph glyph-name="Uogonek" unicode="&#x172;" horiz-adv-x="544" 
d="M479 630v-425q0 -77 -29.5 -127.5t-84.5 -73.5q-10 -11 -17.5 -27.5t-7.5 -33.5q0 -21 10.5 -35.5t32.5 -14.5h28v-48q-33 -12 -56 -12q-36 0 -61.5 19.5t-25.5 63.5q0 39 26 74q-6 -1 -22 -1q-99 0 -153.5 55.5t-54.5 160.5v425h82v-429q0 -67 33 -102.5t93 -35.5
q61 0 94 35.5t33 102.5v429h80z" />
    <glyph glyph-name="Uring" unicode="&#x16e;" horiz-adv-x="544" 
d="M335 815q26 -26 26 -62q0 -37 -26 -62.5t-63 -25.5q-36 0 -62 25.5t-26 62.5t26 62.5t62 25.5q37 0 63 -26zM239.5 786.5q-13.5 -13.5 -13.5 -33.5t13.5 -33.5t32.5 -13.5t33 14t14 33t-14 33t-33 14t-32.5 -13.5zM424.5 44.5q-54.5 -55.5 -152.5 -55.5
q-99 0 -153.5 55.5t-54.5 160.5v425h82v-429q0 -67 33 -102.5t93 -35.5q61 0 94 35.5t33 102.5v429h80v-425q0 -105 -54.5 -160.5z" />
    <glyph glyph-name="Utilde" unicode="&#x168;" horiz-adv-x="544" 
d="M387 746.5q-20 -29.5 -58 -29.5q-14 0 -26.5 4t-30.5 11q-32 13 -49 13q-28 0 -32 -28h-53q0 36 20 65.5t58 29.5q24 0 56 -15q3 -1 18.5 -7t30.5 -6q14 0 22 6t10 22h54q0 -36 -20 -65.5zM424.5 44.5q-54.5 -55.5 -152.5 -55.5q-99 0 -153.5 55.5t-54.5 160.5v425h82
v-429q0 -67 33 -102.5t93 -35.5q61 0 94 35.5t33 102.5v429h80v-425q0 -105 -54.5 -160.5z" />
    <glyph glyph-name="V" unicode="V" horiz-adv-x="503" 
d="M7 630h90l156 -541h4l160 541h78l-191 -630h-104z" />
    <glyph glyph-name="W" unicode="W" horiz-adv-x="711" 
d="M374 427q-6 38 -10.5 75.5t-6.5 51.5h-4q-2 -14 -6.5 -51.5t-10.5 -75.5l-76 -427h-105l-146 630h86l96 -436q6 -22 11.5 -60.5t7.5 -50.5h4q1 10 5.5 43.5t10.5 67.5l73 436h112l78 -436q6 -36 11 -68t6 -43h3q2 12 7.5 49t11.5 62l97 436h73l-146 -630h-105z" />
    <glyph glyph-name="Wacute" unicode="&#x1e82;" horiz-adv-x="711" 
d="M365 691h-63l79 121h82l1 -3zM451 0l-77 427q-6 38 -10.5 75.5t-6.5 51.5h-4q-2 -14 -6.5 -51.5t-10.5 -75.5l-76 -427h-105l-146 630h86l96 -436q6 -22 11.5 -60.5t7.5 -50.5h4q1 10 5.5 43.5t10.5 67.5l73 436h112l78 -436q6 -36 11 -68t6 -43h3q2 12 7.5 49t11.5 62
l97 436h73l-146 -630h-105z" />
    <glyph glyph-name="Wcircumflex" unicode="&#x174;" horiz-adv-x="711" 
d="M357 759l-42 -73h-74l80 125h71l79 -125h-74zM374 427q-6 38 -10.5 75.5t-6.5 51.5h-4q-2 -14 -6.5 -51.5t-10.5 -75.5l-76 -427h-105l-146 630h86l96 -436q6 -22 11.5 -60.5t7.5 -50.5h4q1 10 5.5 43.5t10.5 67.5l73 436h112l78 -436q6 -36 11 -68t6 -43h3q2 12 7.5 49
t11.5 62l97 436h73l-146 -630h-105z" />
    <glyph glyph-name="Wdieresis" unicode="&#x1e84;" horiz-adv-x="711" 
d="M248 725v87h79v-87h-79zM385 725v87h80v-87h-80zM451 0l-77 427q-6 38 -10.5 75.5t-6.5 51.5h-4q-2 -14 -6.5 -51.5t-10.5 -75.5l-76 -427h-105l-146 630h86l96 -436q6 -22 11.5 -60.5t7.5 -50.5h4q1 10 5.5 43.5t10.5 67.5l73 436h112l78 -436q6 -36 11 -68t6 -43h3
q2 12 7.5 49t11.5 62l97 436h73l-146 -630h-105z" />
    <glyph glyph-name="Wgrave" unicode="&#x1e80;" horiz-adv-x="711" 
d="M347 691l-98 118l1 3h82l79 -121h-64zM451 0l-77 427q-6 38 -10.5 75.5t-6.5 51.5h-4q-2 -14 -6.5 -51.5t-10.5 -75.5l-76 -427h-105l-146 630h86l96 -436q6 -22 11.5 -60.5t7.5 -50.5h4q1 10 5.5 43.5t10.5 67.5l73 436h112l78 -436q6 -36 11 -68t6 -43h3q2 12 7.5 49
t11.5 62l97 436h73l-146 -630h-105z" />
    <glyph glyph-name="X" unicode="X" horiz-adv-x="503" 
d="M404 0l-156 257l-158 -257h-86l201 328l-183 302h96l136 -225l138 225h87l-183 -295l203 -335h-95z" />
    <glyph glyph-name="Y" unicode="Y" horiz-adv-x="503" 
d="M211 0v261l-204 369h90l160 -292h3l157 292h78l-203 -369v-261h-81z" />
    <glyph glyph-name="Yacute" unicode="&#xdd;" horiz-adv-x="503" 
d="M260 691h-63l79 121h83l1 -3zM292 0h-81v261l-204 369h90l160 -292h3l157 292h78l-203 -369v-261z" />
    <glyph glyph-name="Ycircumflex" unicode="&#x176;" horiz-adv-x="503" 
d="M252 759l-42 -73h-73l79 125h72l78 -125h-74zM211 0v261l-204 369h90l160 -292h3l157 292h78l-203 -369v-261h-81z" />
    <glyph glyph-name="Ydieresis" unicode="&#x178;" horiz-adv-x="503" 
d="M142 725v87h81v-87h-81zM281 725v87h80v-87h-80zM292 0h-81v261l-204 369h90l160 -292h3l157 292h78l-203 -369v-261z" />
    <glyph glyph-name="Ygrave" unicode="&#x1ef2;" horiz-adv-x="503" 
d="M242 691l-98 118l1 3h82l79 -121h-64zM292 0h-81v261l-204 369h90l160 -292h3l157 292h78l-203 -369v-261z" />
    <glyph glyph-name="Z" unicode="Z" horiz-adv-x="461" 
d="M133 74h307v-74h-421v35l299 522h-281v73h397v-34z" />
    <glyph glyph-name="Zacute" unicode="&#x179;" horiz-adv-x="461" 
d="M239 691h-63l79 121h82l1 -3zM133 74h307v-74h-421v35l299 522h-281v73h397v-34z" />
    <glyph glyph-name="Zcaron" unicode="&#x17d;" horiz-adv-x="461" 
d="M194 687l-79 125h74l41 -73l41 73h73l-79 -125h-71zM133 74h307v-74h-421v35l299 522h-281v73h397v-34z" />
    <glyph glyph-name="Zdotaccent" unicode="&#x17b;" horiz-adv-x="461" 
d="M190 725v87h80v-87h-80zM133 74h307v-74h-421v35l299 522h-281v73h397v-34z" />
    <glyph glyph-name="a" unicode="a" horiz-adv-x="419" 
d="M315 460q37 -35 37 -100v-272q0 -15 7 -23.5t17 -8.5h31v-52q-20 -11 -50 -11q-29 0 -49.5 16t-26.5 43h-5q-19 -30 -49.5 -46.5t-68.5 -16.5q-49 0 -88 29t-39 107q0 93 63 127.5t182 34.5v62q0 38 -16.5 58t-59.5 20q-40 0 -57.5 -22t-17.5 -53v-12h-74q-1 5 -1 21
q0 64 42.5 99t112.5 35q73 0 110 -35zM151.5 200.5q-41.5 -18.5 -41.5 -70.5q0 -40 16.5 -57t49.5 -17q39 0 69.5 32t30.5 88v43q-83 0 -124.5 -18.5z" />
    <glyph glyph-name="aacute" unicode="&#xe1;" horiz-adv-x="419" 
d="M214 543h-63l79 122h83v-4zM315 460q37 -35 37 -100v-272q0 -15 7 -23.5t17 -8.5h31v-52q-20 -11 -50 -11q-29 0 -49.5 16t-26.5 43h-5q-19 -30 -49.5 -46.5t-68.5 -16.5q-49 0 -88 29t-39 107q0 93 63 127.5t182 34.5v62q0 38 -16.5 58t-59.5 20q-40 0 -57.5 -22
t-17.5 -53v-12h-74q-1 5 -1 21q0 64 42.5 99t112.5 35q73 0 110 -35zM151.5 200.5q-41.5 -18.5 -41.5 -70.5q0 -40 16.5 -57t49.5 -17q39 0 69.5 32t30.5 88v43q-83 0 -124.5 -18.5z" />
    <glyph glyph-name="abreve" unicode="&#x103;" horiz-adv-x="419" 
d="M309 622.5q-14 -20.5 -39.5 -34t-59.5 -13.5t-60 13.5t-40 34t-14 42.5h59q3 -11 18 -21t37 -10t37.5 10t17.5 21h58q0 -22 -14 -42.5zM315 460q37 -35 37 -100v-272q0 -15 7 -23.5t17 -8.5h31v-52q-20 -11 -50 -11q-29 0 -49.5 16t-26.5 43h-5q-19 -30 -49.5 -46.5
t-68.5 -16.5q-49 0 -88 29t-39 107q0 93 63 127.5t182 34.5v62q0 38 -16.5 58t-59.5 20q-40 0 -57.5 -22t-17.5 -53v-12h-74q-1 5 -1 21q0 64 42.5 99t112.5 35q73 0 110 -35zM151.5 200.5q-41.5 -18.5 -41.5 -70.5q0 -40 16.5 -57t49.5 -17q39 0 69.5 32t30.5 88v43
q-83 0 -124.5 -18.5z" />
    <glyph glyph-name="acircumflex" unicode="&#xe2;" horiz-adv-x="419" 
d="M210 613l-40 -73h-74l78 124h72l78 -124h-73zM315 460q37 -35 37 -100v-272q0 -15 7 -23.5t17 -8.5h31v-52q-20 -11 -50 -11q-29 0 -49.5 16t-26.5 43h-5q-19 -30 -49.5 -46.5t-68.5 -16.5q-49 0 -88 29t-39 107q0 93 63 127.5t182 34.5v62q0 38 -16.5 58t-59.5 20
q-40 0 -57.5 -22t-17.5 -53v-12h-74q-1 5 -1 21q0 64 42.5 99t112.5 35q73 0 110 -35zM151.5 200.5q-41.5 -18.5 -41.5 -70.5q0 -40 16.5 -57t49.5 -17q39 0 69.5 32t30.5 88v43q-83 0 -124.5 -18.5z" />
    <glyph glyph-name="adieresis" unicode="&#xe4;" horiz-adv-x="419" 
d="M100 577v88h80v-88h-80zM238 577v88h81v-88h-81zM315 460q37 -35 37 -100v-272q0 -15 7 -23.5t17 -8.5h31v-52q-20 -11 -50 -11q-29 0 -49.5 16t-26.5 43h-5q-19 -30 -49.5 -46.5t-68.5 -16.5q-49 0 -88 29t-39 107q0 93 63 127.5t182 34.5v62q0 38 -16.5 58t-59.5 20
q-40 0 -57.5 -22t-17.5 -53v-12h-74q-1 5 -1 21q0 64 42.5 99t112.5 35q73 0 110 -35zM151.5 200.5q-41.5 -18.5 -41.5 -70.5q0 -40 16.5 -57t49.5 -17q39 0 69.5 32t30.5 88v43q-83 0 -124.5 -18.5z" />
    <glyph glyph-name="agrave" unicode="&#xe0;" horiz-adv-x="419" 
d="M197 543l-99 118l1 4h82l79 -122h-63zM315 460q37 -35 37 -100v-272q0 -15 7 -23.5t17 -8.5h31v-52q-20 -11 -50 -11q-29 0 -49.5 16t-26.5 43h-5q-19 -30 -49.5 -46.5t-68.5 -16.5q-49 0 -88 29t-39 107q0 93 63 127.5t182 34.5v62q0 38 -16.5 58t-59.5 20
q-40 0 -57.5 -22t-17.5 -53v-12h-74q-1 5 -1 21q0 64 42.5 99t112.5 35q73 0 110 -35zM151.5 200.5q-41.5 -18.5 -41.5 -70.5q0 -40 16.5 -57t49.5 -17q39 0 69.5 32t30.5 88v43q-83 0 -124.5 -18.5z" />
    <glyph glyph-name="amacron" unicode="&#x101;" horiz-adv-x="419" 
d="M95 617h231v-66h-231v66zM315 460q37 -35 37 -100v-272q0 -15 7 -23.5t17 -8.5h31v-52q-20 -11 -50 -11q-29 0 -49.5 16t-26.5 43h-5q-19 -30 -49.5 -46.5t-68.5 -16.5q-49 0 -88 29t-39 107q0 93 63 127.5t182 34.5v62q0 38 -16.5 58t-59.5 20q-40 0 -57.5 -22
t-17.5 -53v-12h-74q-1 5 -1 21q0 64 42.5 99t112.5 35q73 0 110 -35zM151.5 200.5q-41.5 -18.5 -41.5 -70.5q0 -40 16.5 -57t49.5 -17q39 0 69.5 32t30.5 88v43q-83 0 -124.5 -18.5z" />
    <glyph glyph-name="aogonek" unicode="&#x105;" horiz-adv-x="419" 
d="M397 -167q-35 0 -60.5 19.5t-25.5 63.5q0 25 7 43.5t20 35.5q-22 4 -37 19.5t-20 37.5h-5q-19 -30 -49.5 -46.5t-68.5 -16.5q-49 0 -88 29t-39 107q0 93 63 127.5t182 34.5v62q0 38 -16.5 58t-59.5 20q-40 0 -57.5 -22t-17.5 -53v-12h-74q-1 5 -1 21q0 64 42.5 99
t112.5 35q73 0 110 -35t37 -100v-272q0 -15 7 -23.5t17 -8.5h31v-52q-10 -12 -17 -28t-7 -33q0 -22 9.5 -36t31.5 -14h29v-48q-33 -12 -56 -12zM151.5 200.5q-41.5 -18.5 -41.5 -70.5q0 -40 16.5 -57t49.5 -17q39 0 69.5 32t30.5 88v43q-83 0 -124.5 -18.5z" />
    <glyph glyph-name="aring" unicode="&#xe5;" horiz-adv-x="419" 
d="M271.5 668q25.5 -26 25.5 -62q0 -37 -25.5 -63t-61.5 -26t-62 25.5t-26 63.5q0 36 25.5 62t62.5 26q36 0 61.5 -26zM176 638.5q-14 -13.5 -14 -32.5t14.5 -33.5t33.5 -14.5q18 0 32.5 14.5t14.5 33.5q0 18 -14.5 32t-32.5 14q-20 0 -34 -13.5zM315 460q37 -35 37 -100
v-272q0 -15 7 -23.5t17 -8.5h31v-52q-20 -11 -50 -11q-29 0 -49.5 16t-26.5 43h-5q-19 -30 -49.5 -46.5t-68.5 -16.5q-49 0 -88 29t-39 107q0 93 63 127.5t182 34.5v62q0 38 -16.5 58t-59.5 20q-40 0 -57.5 -22t-17.5 -53v-12h-74q-1 5 -1 21q0 64 42.5 99t112.5 35
q73 0 110 -35zM151.5 200.5q-41.5 -18.5 -41.5 -70.5q0 -40 16.5 -57t49.5 -17q39 0 69.5 32t30.5 88v43q-83 0 -124.5 -18.5z" />
    <glyph glyph-name="aringacute" unicode="&#x1fb;" horiz-adv-x="419" 
d="M243 706h-63l70 106h82l1 -3zM272 661q25 -24 25 -59t-25 -59t-62 -24t-62.5 23.5t-25.5 59.5q0 35 25.5 59t62.5 24t62 -24zM176.5 632.5q-14.5 -12.5 -14.5 -30.5t14.5 -31t33.5 -13q18 0 32.5 13t14.5 31t-14 30.5t-33 12.5t-33.5 -12.5zM315 460q37 -35 37 -100v-272
q0 -15 7 -23.5t17 -8.5h31v-52q-20 -11 -50 -11q-29 0 -49.5 16t-26.5 43h-5q-19 -30 -49.5 -46.5t-68.5 -16.5q-49 0 -88 29t-39 107q0 93 63 127.5t182 34.5v62q0 38 -16.5 58t-59.5 20q-40 0 -57.5 -22t-17.5 -53v-12h-74q-1 5 -1 21q0 64 42.5 99t112.5 35q73 0 110 -35
zM151.5 200.5q-41.5 -18.5 -41.5 -70.5q0 -40 16.5 -57t49.5 -17q39 0 69.5 32t30.5 88v43q-83 0 -124.5 -18.5z" />
    <glyph glyph-name="atilde" unicode="&#xe3;" horiz-adv-x="419" 
d="M324 598.5q-20 -29.5 -59 -29.5q-17 0 -34 7t-21 8q-16 7 -27 10.5t-23 3.5q-28 0 -31 -29h-54q0 37 20.5 66.5t58.5 29.5q13 0 27.5 -4.5t27.5 -10.5q12 -5 25.5 -9.5t24.5 -4.5q28 0 31 29h54q0 -37 -20 -66.5zM315 460q37 -35 37 -100v-272q0 -15 7 -23.5t17 -8.5h31
v-52q-20 -11 -50 -11q-29 0 -49.5 16t-26.5 43h-5q-19 -30 -49.5 -46.5t-68.5 -16.5q-49 0 -88 29t-39 107q0 93 63 127.5t182 34.5v62q0 38 -16.5 58t-59.5 20q-40 0 -57.5 -22t-17.5 -53v-12h-74q-1 5 -1 21q0 64 42.5 99t112.5 35q73 0 110 -35zM151.5 200.5
q-41.5 -18.5 -41.5 -70.5q0 -40 16.5 -57t49.5 -17q39 0 69.5 32t30.5 88v43q-83 0 -124.5 -18.5z" />
    <glyph glyph-name="ae" unicode="&#xe6;" horiz-adv-x="670" 
d="M583 441q39 -54 39 -174v-48h-261q0 -84 25.5 -123.5t79.5 -39.5q36 0 59 29.5t23 78.5h74q0 -80 -43.5 -127.5t-114.5 -47.5q-104 0 -147 73q-26 -34 -62 -53.5t-77 -19.5q-59 0 -100.5 29t-41.5 107q0 93 63.5 127.5t182.5 34.5v62q0 38 -17 58t-60 20q-39 0 -56.5 -22
t-17.5 -53v-12h-75q-1 5 -1 21q0 64 43 99t112 35q44 0 76 -14t49 -41q45 55 129 55q80 0 119 -54zM390 393q-24 -34 -29 -106h182q0 69 -20 104.5t-59 35.5q-50 0 -74 -34zM157 200.5q-42 -18.5 -42 -70.5q0 -40 16.5 -57t49.5 -17q40 0 70.5 29.5t30.5 82.5v51
q-83 0 -125 -18.5z" />
    <glyph glyph-name="aeacute" unicode="&#x1fd;" horiz-adv-x="670" 
d="M344 543h-63l79 122h82l1 -4zM583 441q39 -54 39 -174v-48h-261q0 -84 25.5 -123.5t79.5 -39.5q36 0 59 29.5t23 78.5h74q0 -80 -43.5 -127.5t-114.5 -47.5q-104 0 -147 73q-26 -34 -62 -53.5t-77 -19.5q-59 0 -100.5 29t-41.5 107q0 93 63.5 127.5t182.5 34.5v62
q0 38 -17 58t-60 20q-39 0 -56.5 -22t-17.5 -53v-12h-75q-1 5 -1 21q0 64 43 99t112 35q44 0 76 -14t49 -41q45 55 129 55q80 0 119 -54zM390 393q-24 -34 -29 -106h182q0 69 -20 104.5t-59 35.5q-50 0 -74 -34zM157 200.5q-42 -18.5 -42 -70.5q0 -40 16.5 -57t49.5 -17
q40 0 70.5 29.5t30.5 82.5v51q-83 0 -125 -18.5z" />
    <glyph glyph-name="b" unicode="b" horiz-adv-x="419" 
d="M135 438q13 26 40.5 41.5t62.5 15.5q64 0 104.5 -63.5t40.5 -189.5q0 -128 -39.5 -190.5t-110.5 -62.5q-34 0 -61.5 17t-44.5 50h-4l-11 -56h-57v665h76v-227h4zM131 256v-31q0 -169 86 -169q44 0 65.5 40t21.5 129v34q0 89 -21.5 128.5t-65.5 39.5q-86 0 -86 -171z" />
    <glyph glyph-name="c" unicode="c" horiz-adv-x="376" 
d="M311 447q35 -48 35 -142h-78q0 65 -15 93.5t-54 28.5q-45 0 -66 -41.5t-21 -126.5v-34q0 -85 21 -127t66 -42q39 0 56 30.5t17 92.5h74q0 -83 -36 -136.5t-111 -53.5q-86 0 -126 61t-40 191q0 131 40 192.5t126 61.5q77 0 112 -48z" />
    <glyph glyph-name="cacute" unicode="&#x107;" horiz-adv-x="376" 
d="M207 543h-65l80 122h83v-4zM311 447q35 -48 35 -142h-78q0 65 -15 93.5t-54 28.5q-45 0 -66 -41.5t-21 -126.5v-34q0 -85 21 -127t66 -42q39 0 56 30.5t17 92.5h74q0 -83 -36 -136.5t-111 -53.5q-86 0 -126 61t-40 191q0 131 40 192.5t126 61.5q77 0 112 -48z" />
    <glyph glyph-name="ccaron" unicode="&#x10d;" horiz-adv-x="376" 
d="M75 665h73l40 -73l42 73h74l-79 -124h-72zM311 447q35 -48 35 -142h-78q0 65 -15 93.5t-54 28.5q-45 0 -66 -41.5t-21 -126.5v-34q0 -85 21 -127t66 -42q39 0 56 30.5t17 92.5h74q0 -83 -36 -136.5t-111 -53.5q-86 0 -126 61t-40 191q0 131 40 192.5t126 61.5
q77 0 112 -48z" />
    <glyph glyph-name="ccedilla" unicode="&#xe7;" horiz-adv-x="376" 
d="M311 447q35 -48 35 -142h-78q0 65 -15 93.5t-54 28.5q-45 0 -66 -41.5t-21 -126.5v-34q0 -85 21 -127t66 -42q39 0 56 30.5t17 92.5h74q0 -81 -35 -134.5t-108 -55.5l-2 -22q33 -2 53.5 -16.5t20.5 -43.5q0 -41 -29 -57.5t-67 -16.5t-77 7v45h70q33 0 33 22q0 12 -7 17
t-24 5h-30l10 66q-62 14 -91.5 74.5t-29.5 171.5q0 131 40 192.5t126 61.5q77 0 112 -48z" />
    <glyph glyph-name="ccircumflex" unicode="&#x109;" horiz-adv-x="376" 
d="M189 613l-41 -73h-73l79 124h72l78 -124h-74zM311 447q35 -48 35 -142h-78q0 65 -15 93.5t-54 28.5q-45 0 -66 -41.5t-21 -126.5v-34q0 -85 21 -127t66 -42q39 0 56 30.5t17 92.5h74q0 -83 -36 -136.5t-111 -53.5q-86 0 -126 61t-40 191q0 131 40 192.5t126 61.5
q77 0 112 -48z" />
    <glyph glyph-name="cdotaccent" unicode="&#x10b;" horiz-adv-x="376" 
d="M149 665h80v-88h-80v88zM311 447q35 -48 35 -142h-78q0 65 -15 93.5t-54 28.5q-45 0 -66 -41.5t-21 -126.5v-34q0 -85 21 -127t66 -42q39 0 56 30.5t17 92.5h74q0 -83 -36 -136.5t-111 -53.5q-86 0 -126 61t-40 191q0 131 40 192.5t126 61.5q77 0 112 -48z" />
    <glyph glyph-name="d" unicode="d" horiz-adv-x="419" 
d="M297 56h-5q-17 -33 -44.5 -50t-61.5 -17q-71 0 -110.5 62.5t-39.5 190.5q0 126 40.5 189.5t104.5 63.5q35 0 62.5 -15.5t40.5 -41.5h5v227h75v-665h-57zM136.5 387.5q-21.5 -39.5 -21.5 -128.5v-34q0 -89 21.5 -129t65.5 -40q87 0 87 169v31q0 171 -87 171
q-44 0 -65.5 -39.5z" />
    <glyph glyph-name="eth" unicode="&#xf0;" horiz-adv-x="419" 
d="M354.5 417q28.5 -80 28.5 -176q0 -252 -173 -252q-174 0 -174 252q0 129 44.5 191.5t119.5 62.5q19 0 45 -11q-16 31 -51 77l-109 -10v55l66 7l-16 18l-28 30l2 4h81l42 -45l107 10v-56l-65 -6q52 -71 80.5 -151zM304 259q0 83 -24 125.5t-70 42.5q-95 0 -95 -168v-34
q0 -169 95 -169q94 0 94 169v34z" />
    <glyph glyph-name="dcaron" unicode="&#x10f;" horiz-adv-x="464" 
d="M297 56h-5q-17 -33 -44.5 -50t-61.5 -17q-71 0 -110.5 62.5t-39.5 190.5q0 126 40.5 189.5t104.5 63.5q35 0 62.5 -15.5t40.5 -41.5h5v227h75v-665h-57zM400 417l38 114h-38v99h93v-90l-45 -123h-48zM136.5 387.5q-21.5 -39.5 -21.5 -128.5v-34q0 -89 21.5 -129t65.5 -40
q87 0 87 169v31q0 171 -87 171q-44 0 -65.5 -39.5z" />
    <glyph glyph-name="dcroat" unicode="&#x111;" horiz-adv-x="416" 
d="M417 598v-62h-53v-536h-57l-10 56h-5q-17 -33 -44.5 -50t-61.5 -17q-71 0 -110.5 62.5t-39.5 190.5q0 126 40.5 189.5t104.5 63.5q35 0 62.5 -15.5t40.5 -41.5h5v98h-103v62h103v67h75v-67h53zM136.5 387.5q-21.5 -39.5 -21.5 -128.5v-34q0 -89 21.5 -129t65.5 -40
q87 0 87 169v31q0 171 -87 171q-44 0 -65.5 -39.5z" />
    <glyph glyph-name="e" unicode="e" horiz-adv-x="419" 
d="M341 441q39 -54 39 -174v-48h-262q1 -84 26.5 -123.5t79.5 -39.5q36 0 58.5 29.5t22.5 78.5h75q0 -80 -43.5 -127.5t-114.5 -47.5q-93 0 -138.5 60t-45.5 192q0 130 45 192t137 62q82 0 121 -54zM147.5 392.5q-23.5 -34.5 -28.5 -105.5h182q0 140 -81 140
q-49 0 -72.5 -34.5z" />
    <glyph glyph-name="eacute" unicode="&#xe9;" horiz-adv-x="419" 
d="M230 543h-65l79 122h84l1 -4zM341 441q39 -54 39 -174v-48h-262q1 -84 26.5 -123.5t79.5 -39.5q36 0 58.5 29.5t22.5 78.5h75q0 -80 -43.5 -127.5t-114.5 -47.5q-93 0 -138.5 60t-45.5 192q0 130 45 192t137 62q82 0 121 -54zM147.5 392.5q-23.5 -34.5 -28.5 -105.5h182
q0 140 -81 140q-49 0 -72.5 -34.5z" />
    <glyph glyph-name="ebreve" unicode="&#x115;" horiz-adv-x="419" 
d="M309 622.5q-14 -20.5 -39.5 -34t-59.5 -13.5t-60 13.5t-40 34t-14 42.5h59q3 -11 18 -21t37 -10t37.5 10t17.5 21h58q0 -22 -14 -42.5zM341 441q39 -54 39 -174v-48h-262q1 -84 26.5 -123.5t79.5 -39.5q36 0 58.5 29.5t22.5 78.5h75q0 -80 -43.5 -127.5t-114.5 -47.5
q-93 0 -138.5 60t-45.5 192q0 130 45 192t137 62q82 0 121 -54zM147.5 392.5q-23.5 -34.5 -28.5 -105.5h182q0 140 -81 140q-49 0 -72.5 -34.5z" />
    <glyph glyph-name="ecaron" unicode="&#x11b;" horiz-adv-x="419" 
d="M96 665h74l40 -73l41 73h73l-79 -124h-72zM341 441q39 -54 39 -174v-48h-262q1 -84 26.5 -123.5t79.5 -39.5q36 0 58.5 29.5t22.5 78.5h75q0 -80 -43.5 -127.5t-114.5 -47.5q-93 0 -138.5 60t-45.5 192q0 130 45 192t137 62q82 0 121 -54zM147.5 392.5
q-23.5 -34.5 -28.5 -105.5h182q0 140 -81 140q-49 0 -72.5 -34.5z" />
    <glyph glyph-name="ecircumflex" unicode="&#xea;" horiz-adv-x="419" 
d="M210 613l-40 -73h-74l78 124h72l78 -124h-73zM341 441q39 -54 39 -174v-48h-262q1 -84 26.5 -123.5t79.5 -39.5q36 0 58.5 29.5t22.5 78.5h75q0 -80 -43.5 -127.5t-114.5 -47.5q-93 0 -138.5 60t-45.5 192q0 130 45 192t137 62q82 0 121 -54zM147.5 392.5
q-23.5 -34.5 -28.5 -105.5h182q0 140 -81 140q-49 0 -72.5 -34.5z" />
    <glyph glyph-name="edieresis" unicode="&#xeb;" horiz-adv-x="419" 
d="M100 577v88h80v-88h-80zM238 577v88h81v-88h-81zM341 441q39 -54 39 -174v-48h-262q1 -84 26.5 -123.5t79.5 -39.5q36 0 58.5 29.5t22.5 78.5h75q0 -80 -43.5 -127.5t-114.5 -47.5q-93 0 -138.5 60t-45.5 192q0 130 45 192t137 62q82 0 121 -54zM147.5 392.5
q-23.5 -34.5 -28.5 -105.5h182q0 140 -81 140q-49 0 -72.5 -34.5z" />
    <glyph glyph-name="edotaccent" unicode="&#x117;" horiz-adv-x="419" 
d="M171 665h79v-88h-79v88zM341 441q39 -54 39 -174v-48h-262q1 -84 26.5 -123.5t79.5 -39.5q36 0 58.5 29.5t22.5 78.5h75q0 -80 -43.5 -127.5t-114.5 -47.5q-93 0 -138.5 60t-45.5 192q0 130 45 192t137 62q82 0 121 -54zM147.5 392.5q-23.5 -34.5 -28.5 -105.5h182
q0 140 -81 140q-49 0 -72.5 -34.5z" />
    <glyph glyph-name="egrave" unicode="&#xe8;" horiz-adv-x="419" 
d="M211 543l-99 118l1 4h83l79 -122h-64zM341 441q39 -54 39 -174v-48h-262q1 -84 26.5 -123.5t79.5 -39.5q36 0 58.5 29.5t22.5 78.5h75q0 -80 -43.5 -127.5t-114.5 -47.5q-93 0 -138.5 60t-45.5 192q0 130 45 192t137 62q82 0 121 -54zM147.5 392.5
q-23.5 -34.5 -28.5 -105.5h182q0 140 -81 140q-49 0 -72.5 -34.5z" />
    <glyph glyph-name="emacron" unicode="&#x113;" horiz-adv-x="419" 
d="M95 617h231v-66h-231v66zM341 441q39 -54 39 -174v-48h-262q1 -84 26.5 -123.5t79.5 -39.5q36 0 58.5 29.5t22.5 78.5h75q0 -80 -43.5 -127.5t-114.5 -47.5q-93 0 -138.5 60t-45.5 192q0 130 45 192t137 62q82 0 121 -54zM147.5 392.5q-23.5 -34.5 -28.5 -105.5h182
q0 140 -81 140q-49 0 -72.5 -34.5z" />
    <glyph glyph-name="eogonek" unicode="&#x119;" horiz-adv-x="419" 
d="M380 219h-262q1 -84 26.5 -123.5t79.5 -39.5q36 0 58.5 29.5t22.5 78.5h75q0 -56 -22 -96.5t-61 -61.5q-10 -11 -18.5 -28t-8.5 -35q0 -21 10.5 -35.5t31.5 -14.5h29v-48q-34 -12 -56 -12q-35 0 -60.5 19.5t-25.5 63.5q0 41 25 73h-2q-93 0 -138.5 60t-45.5 192
q0 130 45 192t137 62q82 0 121 -54t39 -174v-48zM301 287q0 140 -81 140q-49 0 -72.5 -34.5t-28.5 -105.5h182z" />
    <glyph glyph-name="f" unicode="f" horiz-adv-x="210" 
d="M210 661v-53h-40q-44 0 -44 -43v-81h84v-68h-84v-416h-75v416h-43v68h43v77q0 47 22.5 79t73.5 32q34 0 63 -11z" />
    <glyph glyph-name="g" unicode="g" horiz-adv-x="419" 
d="M378.5 487q-21.5 -31 -58.5 -41q43 -46 43 -114q0 -75 -41.5 -118t-112.5 -44h-51q-19 0 -31.5 -13t-12.5 -31t13 -30.5t31 -12.5h138q51 0 82.5 -33t31.5 -80q0 -60 -37.5 -98.5t-104.5 -38.5h-137q-57 0 -88.5 32.5t-31.5 82.5q0 35 17 63t47 40q-19 12 -29.5 31.5
t-10.5 40.5q0 29 18.5 50.5t49.5 33.5q-27 21 -41.5 53t-14.5 72q0 76 42.5 119.5t115.5 43.5q37 0 70 -18q30 16 43 37t17 48h65q0 -44 -21.5 -75zM144 405.5q-21 -26.5 -21 -73.5q0 -49 20.5 -74.5t60.5 -25.5t61.5 26.5t21.5 73.5q0 48 -21.5 74t-61.5 26
q-39 0 -60 -26.5zM101.5 -4.5q-14.5 -15.5 -14.5 -40.5t15 -41t42 -16h133q24 0 40.5 17t16.5 40q0 24 -15 40t-42 16h-133q-28 0 -42.5 -15.5z" />
    <glyph glyph-name="gbreve" unicode="&#x11f;" horiz-adv-x="419" 
d="M309 622.5q-14 -20.5 -39.5 -34t-59.5 -13.5t-60 13.5t-40 34t-14 42.5h59q3 -11 18 -21t37 -10t37.5 10t17.5 21h58q0 -22 -14 -42.5zM378.5 487q-21.5 -31 -58.5 -41q43 -46 43 -114q0 -75 -41.5 -118t-112.5 -44h-51q-19 0 -31.5 -13t-12.5 -31t13 -30.5t31 -12.5h138
q51 0 82.5 -33t31.5 -80q0 -60 -37.5 -98.5t-104.5 -38.5h-137q-57 0 -88.5 32.5t-31.5 82.5q0 35 17 63t47 40q-19 12 -29.5 31.5t-10.5 40.5q0 29 18.5 50.5t49.5 33.5q-27 21 -41.5 53t-14.5 72q0 76 42.5 119.5t115.5 43.5q37 0 70 -18q30 16 43 37t17 48h65
q0 -44 -21.5 -75zM144 405.5q-21 -26.5 -21 -73.5q0 -49 20.5 -74.5t60.5 -25.5t61.5 26.5t21.5 73.5q0 48 -21.5 74t-61.5 26q-39 0 -60 -26.5zM101.5 -4.5q-14.5 -15.5 -14.5 -40.5t15 -41t42 -16h133q24 0 40.5 17t16.5 40q0 24 -15 40t-42 16h-133q-28 0 -42.5 -15.5z
" />
    <glyph glyph-name="gcircumflex" unicode="&#x11d;" horiz-adv-x="419" 
d="M210 613l-40 -73h-74l78 124h72l78 -124h-73zM378.5 487q-21.5 -31 -58.5 -41q43 -46 43 -114q0 -75 -41.5 -118t-112.5 -44h-51q-19 0 -31.5 -13t-12.5 -31t13 -30.5t31 -12.5h138q51 0 82.5 -33t31.5 -80q0 -60 -37.5 -98.5t-104.5 -38.5h-137q-57 0 -88.5 32.5
t-31.5 82.5q0 35 17 63t47 40q-19 12 -29.5 31.5t-10.5 40.5q0 29 18.5 50.5t49.5 33.5q-27 21 -41.5 53t-14.5 72q0 76 42.5 119.5t115.5 43.5q37 0 70 -18q35 18 49 35.5t15 49.5h61q0 -44 -21.5 -75zM144 405.5q-21 -26.5 -21 -73.5q0 -49 20.5 -74.5t60.5 -25.5
t61.5 26.5t21.5 73.5q0 48 -21.5 74t-61.5 26q-39 0 -60 -26.5zM101.5 -4.5q-14.5 -15.5 -14.5 -40.5t15 -41t42 -16h133q24 0 40.5 17t16.5 40q0 24 -15 40t-42 16h-133q-28 0 -42.5 -15.5z" />
    <glyph glyph-name="gcommaaccent" unicode="&#x123;" horiz-adv-x="419" 
d="M235 630v-83h-79v77l28 72h41l-21 -66h31zM378.5 487q-21.5 -31 -58.5 -41q43 -46 43 -114q0 -75 -41.5 -118t-112.5 -44h-51q-19 0 -31.5 -13t-12.5 -31t13 -30.5t31 -12.5h138q51 0 82.5 -33t31.5 -80q0 -60 -37.5 -98.5t-104.5 -38.5h-137q-57 0 -88.5 32.5
t-31.5 82.5q0 35 17 63t47 40q-19 12 -29.5 31.5t-10.5 40.5q0 29 18.5 50.5t49.5 33.5q-27 21 -41.5 53t-14.5 72q0 76 42.5 119.5t115.5 43.5q37 0 70 -18q30 16 43 37t17 48h65q0 -44 -21.5 -75zM144 405.5q-21 -26.5 -21 -73.5q0 -49 20.5 -74.5t60.5 -25.5t61.5 26.5
t21.5 73.5q0 48 -21.5 74t-61.5 26q-39 0 -60 -26.5zM101.5 -4.5q-14.5 -15.5 -14.5 -40.5t15 -41t42 -16h133q24 0 40.5 17t16.5 40q0 24 -15 40t-42 16h-133q-28 0 -42.5 -15.5z" />
    <glyph glyph-name="gdotaccent" unicode="&#x121;" horiz-adv-x="419" 
d="M171 665h79v-88h-79v88zM378.5 487q-21.5 -31 -58.5 -41q43 -46 43 -114q0 -75 -41.5 -118t-112.5 -44h-51q-19 0 -31.5 -13t-12.5 -31t13 -30.5t31 -12.5h138q51 0 82.5 -33t31.5 -80q0 -60 -37.5 -98.5t-104.5 -38.5h-137q-57 0 -88.5 32.5t-31.5 82.5q0 35 17 63
t47 40q-19 12 -29.5 31.5t-10.5 40.5q0 29 18.5 50.5t49.5 33.5q-27 21 -41.5 53t-14.5 72q0 76 42.5 119.5t115.5 43.5q37 0 70 -18q30 16 43 37t17 48h65q0 -44 -21.5 -75zM144 405.5q-21 -26.5 -21 -73.5q0 -49 20.5 -74.5t60.5 -25.5t61.5 26.5t21.5 73.5q0 48 -21.5 74
t-61.5 26q-39 0 -60 -26.5zM101.5 -4.5q-14.5 -15.5 -14.5 -40.5t15 -41t42 -16h133q24 0 40.5 17t16.5 40q0 24 -15 40t-42 16h-133q-28 0 -42.5 -15.5z" />
    <glyph glyph-name="h" unicode="h" horiz-adv-x="419" 
d="M244 495q58 0 89 -34.5t31 -112.5v-348h-75v343q0 47 -17.5 65.5t-51.5 18.5q-37 0 -63 -35.5t-26 -96.5v-295h-76v665h76v-232h5q36 62 108 62z" />
    <glyph glyph-name="hbar" unicode="&#x127;" horiz-adv-x="419" 
d="M230 598v-62h-99v-103h5q36 62 108 62q58 0 89 -34.5t31 -112.5v-348h-75v343q0 47 -17.5 65.5t-51.5 18.5q-37 0 -63 -35.5t-26 -96.5v-295h-76v536h-55v62h55v67h76v-67h99z" />
    <glyph glyph-name="hcircumflex" unicode="&#x125;" horiz-adv-x="419" 
d="M96 759l-42 -73h-74l79 125h72l79 -125h-74zM244 495q58 0 89 -34.5t31 -112.5v-348h-75v343q0 47 -17.5 65.5t-51.5 18.5q-37 0 -63 -35.5t-26 -96.5v-295h-76v665h76v-232h5q36 62 108 62z" />
    <glyph glyph-name="i" unicode="i" horiz-adv-x="167" 
d="M46 665h76v-91h-76v91zM46 484h76v-484h-76v484z" />
    <glyph glyph-name="dotlessi" unicode="&#x131;" horiz-adv-x="210" 
d="M68 484h74v-484h-74v484z" />
    <glyph glyph-name="iacute" unicode="&#xed;" horiz-adv-x="210" 
d="M114 543h-63l79 122h81l1 -4zM68 0v484h74v-484h-74z" />
    <glyph glyph-name="ibreve" unicode="&#x12d;" horiz-adv-x="210" 
d="M204 622.5q-14 -20.5 -39.5 -34t-59.5 -13.5q-33 0 -59 13.5t-40.5 34t-14.5 42.5h60q2 -11 17.5 -21t36.5 -10q22 0 37.5 10t17.5 21h58q0 -22 -14 -42.5zM68 484h74v-484h-74v484z" />
    <glyph glyph-name="icircumflex" unicode="&#xee;" horiz-adv-x="210" 
d="M106 613l-42 -73h-74l80 124h71l78 -124h-72zM68 484h74v-484h-74v484z" />
    <glyph glyph-name="idieresis" unicode="&#xef;" horiz-adv-x="210" 
d="M-4 577v88h80v-88h-80zM134 577v88h80v-88h-80zM68 0v484h74v-484h-74z" />
    <glyph glyph-name="igrave" unicode="&#xec;" horiz-adv-x="210" 
d="M97 543l-100 118l1 4h83l79 -122h-63zM68 0v484h74v-484h-74z" />
    <glyph glyph-name="ij" unicode="&#x133;" horiz-adv-x="335" 
d="M46 574v91h76v-91h-76zM213 574v91h76v-91h-76zM46 0v484h76v-484h-76zM266.5 -135q-22.5 -32 -73.5 -32q-34 0 -63 11v52h41q42 0 42 45v543h76v-540q0 -47 -22.5 -79z" />
    <glyph glyph-name="imacron" unicode="&#x12b;" horiz-adv-x="210" 
d="M-10 617h230v-66h-230v66zM68 484h74v-484h-74v484z" />
    <glyph glyph-name="iogonek" unicode="&#x12f;" horiz-adv-x="167" 
d="M44 577v88h81v-88h-81zM99 -57q0 -22 10 -36t31 -14h31v-48q-34 -12 -57 -12q-35 0 -60.5 19.5t-25.5 63.5q0 26 8.5 46t24.5 38h-15v484h76v-484q-23 -29 -23 -57z" />
    <glyph glyph-name="itilde" unicode="&#x129;" horiz-adv-x="210" 
d="M219 598.5q-20 -29.5 -58 -29.5q-22 0 -54 15q-34 14 -52 14q-13 0 -21 -6.5t-10 -22.5h-53q0 37 20 66.5t58 29.5q13 0 27.5 -4.5t27.5 -10.5q13 -5 26 -9.5t25 -4.5q27 0 31 29h53q0 -37 -20 -66.5zM68 484h74v-484h-74v484z" />
    <glyph glyph-name="j" unicode="j" horiz-adv-x="167" 
d="M46 665h76v-91h-76v91zM99.5 -135q-22.5 -32 -73.5 -32q-16 0 -33.5 3t-29.5 8v52h40q21 0 32 11.5t11 33.5v543h76v-540q0 -47 -22.5 -79z" />
    <glyph glyph-name="jcircumflex" unicode="&#x135;" horiz-adv-x="167" 
d="M84 613l-41 -73h-74l79 124h72l79 -124h-74zM99.5 -135q-22.5 -32 -73.5 -32q-16 0 -33.5 3t-29.5 8v52h40q21 0 32 11.5t11 33.5v543h76v-540q0 -47 -22.5 -79z" />
    <glyph glyph-name="k" unicode="k" horiz-adv-x="376" 
d="M370 484l-142 -199l150 -285h-86l-110 220l-51 -56v-164h-76v665h76v-406l156 225h83z" />
    <glyph glyph-name="kcommaaccent" unicode="&#x137;" horiz-adv-x="376" 
d="M370 484l-142 -199l150 -285h-86l-110 220l-51 -56v-164h-76v665h76v-406l156 225h83zM160 -204l21 66h-31v83h78v-77l-26 -72h-42z" />
    <glyph glyph-name="kgreenlandic" unicode="&#x138;" horiz-adv-x="375" 
d="M292 0l-110 220l-51 -56v-164h-76v484h76v-225l156 225h83l-142 -199l150 -285h-86z" />
    <glyph glyph-name="l" unicode="l" horiz-adv-x="167" 
d="M46 665h76v-665h-76v665z" />
    <glyph glyph-name="lacute" unicode="&#x13a;" horiz-adv-x="167" 
d="M93 691h-64l79 121h83v-3zM46 0v665h76v-665h-76z" />
    <glyph glyph-name="lcaron" unicode="&#x13e;" horiz-adv-x="219" 
d="M46 665h76v-665h-76v665zM158 417l36 114h-36v99h92v-90l-44 -123h-48z" />
    <glyph glyph-name="lcommaaccent" unicode="&#x13c;" horiz-adv-x="167" 
d="M46 665h76v-665h-76v665zM56 -204l20 66h-31v83h78v-77l-26 -72h-41z" />
    <glyph glyph-name="ldot" unicode="&#x140;" horiz-adv-x="297" 
d="M46 665h76v-665h-76v665zM158 367h93v-102h-93v102z" />
    <glyph glyph-name="lslash" unicode="&#x142;" horiz-adv-x="167" 
d="M202 364l-80 -71v-293h-76v226l-66 -56v64l66 58v373h76v-305l80 71v-67z" />
    <glyph glyph-name="m" unicode="m" horiz-adv-x="628" 
d="M573 348v-348h-76v343q0 47 -16 65.5t-46 18.5q-35 0 -58.5 -35.5t-23.5 -96.5v-295h-76v343q0 47 -16.5 65.5t-46.5 18.5q-35 0 -59 -35.5t-24 -96.5v-295h-76v484h57l11 -57h5q37 68 110 68q77 0 103 -71q19 34 50.5 52.5t67.5 18.5q114 0 114 -147z" />
    <glyph glyph-name="n" unicode="n" horiz-adv-x="419" 
d="M333 460.5q31 -34.5 31 -112.5v-348h-75v343q0 47 -17.5 65.5t-51.5 18.5q-37 0 -63 -35.5t-26 -96.5v-295h-76v484h57l11 -57h5q38 68 116 68q58 0 89 -34.5z" />
    <glyph glyph-name="nacute" unicode="&#x144;" horiz-adv-x="419" 
d="M218 543h-63l79 122h82l1 -4zM333 460.5q31 -34.5 31 -112.5v-348h-75v343q0 47 -17.5 65.5t-51.5 18.5q-37 0 -63 -35.5t-26 -96.5v-295h-76v484h57l11 -57h5q38 68 116 68q58 0 89 -34.5z" />
    <glyph glyph-name="napostrophe" unicode="&#x149;" horiz-adv-x="527" 
d="M96 480h-42l21 66h-31v84h79v-78zM471 348v-348h-75v343q0 47 -17.5 65.5t-50.5 18.5q-37 0 -63.5 -36t-26.5 -96v-295h-76v484h57l11 -57h5q38 68 118 68q118 0 118 -147z" />
    <glyph glyph-name="ncaron" unicode="&#x148;" horiz-adv-x="419" 
d="M96 665h74l40 -73l41 73h73l-79 -124h-72zM333 460.5q31 -34.5 31 -112.5v-348h-75v343q0 47 -17.5 65.5t-51.5 18.5q-37 0 -63 -35.5t-26 -96.5v-295h-76v484h57l11 -57h5q38 68 116 68q58 0 89 -34.5z" />
    <glyph glyph-name="ncommaaccent" unicode="&#x146;" horiz-adv-x="419" 
d="M333 460.5q31 -34.5 31 -112.5v-348h-75v343q0 47 -17.5 65.5t-51.5 18.5q-37 0 -63 -35.5t-26 -96.5v-295h-76v484h57l11 -57h5q38 68 116 68q58 0 89 -34.5zM181 -204l21 66h-31v83h79v-77l-27 -72h-42z" />
    <glyph glyph-name="eng" unicode="&#x14b;" horiz-adv-x="419" 
d="M333 460.5q31 -34.5 31 -112.5v-404q0 -47 -22.5 -79t-73.5 -32q-16 0 -33.5 3t-29.5 8v52h40q44 0 44 45v402q0 47 -17.5 65.5t-51.5 18.5q-37 0 -63 -35.5t-26 -96.5v-295h-76v484h57l11 -57h5q38 68 116 68q58 0 89 -34.5z" />
    <glyph glyph-name="ntilde" unicode="&#xf1;" horiz-adv-x="419" 
d="M324 598.5q-20 -29.5 -59 -29.5q-17 0 -34 7t-21 8q-16 7 -27 10.5t-23 3.5q-28 0 -31 -29h-54q0 37 20.5 66.5t58.5 29.5q13 0 27.5 -4.5t27.5 -10.5q12 -5 25.5 -9.5t24.5 -4.5q28 0 31 29h54q0 -37 -20 -66.5zM333 460.5q31 -34.5 31 -112.5v-348h-75v343
q0 47 -17.5 65.5t-51.5 18.5q-37 0 -63 -35.5t-26 -96.5v-295h-76v484h57l11 -57h5q38 68 116 68q58 0 89 -34.5z" />
    <glyph glyph-name="o" unicode="o" horiz-adv-x="419" 
d="M383 241q0 -252 -173 -252q-174 0 -174 252q0 254 174 254q173 0 173 -254zM115 259v-34q0 -169 95 -169q94 0 94 169v34q0 83 -23.5 125.5t-70.5 42.5q-95 0 -95 -168z" />
    <glyph glyph-name="oacute" unicode="&#xf3;" horiz-adv-x="419" 
d="M218 543h-63l79 122h82l1 -4zM383 241q0 -252 -173 -252q-174 0 -174 252q0 254 174 254q173 0 173 -254zM115 259v-34q0 -169 95 -169q94 0 94 169v34q0 83 -23.5 125.5t-70.5 42.5q-95 0 -95 -168z" />
    <glyph glyph-name="obreve" unicode="&#x14f;" horiz-adv-x="419" 
d="M309 622.5q-14 -20.5 -39.5 -34t-59.5 -13.5t-60 13.5t-40 34t-14 42.5h59q3 -11 18 -21t37 -10t37.5 10t17.5 21h58q0 -22 -14 -42.5zM383 241q0 -252 -173 -252q-174 0 -174 252q0 254 174 254q173 0 173 -254zM115 259v-34q0 -169 95 -169q94 0 94 169v34
q0 83 -23.5 125.5t-70.5 42.5q-95 0 -95 -168z" />
    <glyph glyph-name="ocircumflex" unicode="&#xf4;" horiz-adv-x="419" 
d="M210 613l-40 -73h-74l78 124h72l78 -124h-73zM383 241q0 -252 -173 -252q-174 0 -174 252q0 254 174 254q173 0 173 -254zM115 259v-34q0 -169 95 -169q94 0 94 169v34q0 83 -23.5 125.5t-70.5 42.5q-95 0 -95 -168z" />
    <glyph glyph-name="odieresis" unicode="&#xf6;" horiz-adv-x="419" 
d="M100 577v88h80v-88h-80zM238 577v88h81v-88h-81zM383 241q0 -252 -173 -252q-174 0 -174 252q0 254 174 254q173 0 173 -254zM115 259v-34q0 -169 95 -169q94 0 94 169v34q0 83 -23.5 125.5t-70.5 42.5q-95 0 -95 -168z" />
    <glyph glyph-name="ograve" unicode="&#xf2;" horiz-adv-x="419" 
d="M202 543l-101 118l1 4h84l79 -122h-63zM383 241q0 -252 -173 -252q-174 0 -174 252q0 254 174 254q173 0 173 -254zM115 259v-34q0 -169 95 -169q94 0 94 169v34q0 83 -23.5 125.5t-70.5 42.5q-95 0 -95 -168z" />
    <glyph glyph-name="ohungarumlaut" unicode="&#x151;" horiz-adv-x="419" 
d="M122 543l56 122h83l1 -4l-77 -118h-63zM241 543l57 122h84l1 -4l-78 -118h-64zM383 241q0 -252 -173 -252q-174 0 -174 252q0 254 174 254q173 0 173 -254zM115 259v-34q0 -169 95 -169q94 0 94 169v34q0 83 -23.5 125.5t-70.5 42.5q-95 0 -95 -168z" />
    <glyph glyph-name="omacron" unicode="&#x14d;" horiz-adv-x="419" 
d="M95 617h231v-66h-231v66zM383 241q0 -252 -173 -252q-174 0 -174 252q0 254 174 254q173 0 173 -254zM115 259v-34q0 -169 95 -169q94 0 94 169v34q0 83 -23.5 125.5t-70.5 42.5q-95 0 -95 -168z" />
    <glyph glyph-name="oslash" unicode="&#xf8;" horiz-adv-x="461" 
d="M402 241q0 -128 -43 -190t-129 -62q-60 0 -98 29l-25 -47h-50l43 80q-43 63 -43 190q0 130 43.5 192t129.5 62q59 0 97 -29l26 47h49l-43 -80q43 -61 43 -192zM136 259v-34q0 -61 10 -92l144 267q-22 27 -60 27q-94 0 -94 -168zM230 56q93 0 93 169v34q0 57 -10 90
l-143 -266q22 -27 60 -27z" />
    <glyph glyph-name="oslashacute" unicode="&#x1ff;" horiz-adv-x="461" 
d="M239 543h-63l79 122h82l1 -4zM402 241q0 -128 -43 -190t-129 -62q-60 0 -98 29l-25 -47h-50l43 80q-43 63 -43 190q0 130 43.5 192t129.5 62q59 0 97 -29l26 47h49l-43 -80q43 -61 43 -192zM136 259v-34q0 -61 10 -92l144 267q-22 27 -60 27q-94 0 -94 -168zM230 56
q93 0 93 169v34q0 57 -10 90l-143 -266q22 -27 60 -27z" />
    <glyph glyph-name="otilde" unicode="&#xf5;" horiz-adv-x="419" 
d="M324 598.5q-20 -29.5 -59 -29.5q-17 0 -34 7t-21 8q-16 7 -27 10.5t-23 3.5q-28 0 -31 -29h-54q0 37 20.5 66.5t58.5 29.5q13 0 27.5 -4.5t27.5 -10.5q12 -5 25.5 -9.5t24.5 -4.5q28 0 31 29h54q0 -37 -20 -66.5zM383 241q0 -252 -173 -252q-174 0 -174 252
q0 254 174 254q173 0 173 -254zM115 259v-34q0 -169 95 -169q94 0 94 169v34q0 83 -23.5 125.5t-70.5 42.5q-95 0 -95 -168z" />
    <glyph glyph-name="oe" unicode="&#x153;" horiz-adv-x="711" 
d="M619 441q39 -54 39 -174v-48h-262q1 -84 27 -123.5t79 -39.5q36 0 58.5 29.5t22.5 78.5h75q0 -80 -43.5 -127.5t-114.5 -47.5q-101 0 -144 70q-41 -70 -134 -70q-86 0 -129.5 62t-43.5 190q0 130 43.5 192t129.5 62q92 0 134 -71q45 71 143 71q81 0 120 -54zM128 259v-34
q0 -169 94 -169q93 0 93 169v34q0 168 -93 168q-94 0 -94 -168zM426 393q-24 -34 -29 -106h182q0 69 -20.5 104.5t-59.5 35.5q-49 0 -73 -34z" />
    <glyph glyph-name="p" unicode="p" horiz-adv-x="419" 
d="M343.5 432.5q39.5 -62.5 39.5 -191.5q0 -125 -40.5 -188.5t-104.5 -63.5q-35 0 -62.5 14.5t-40.5 39.5h-4v-202h-76v643h57l11 -57h4q17 33 44.5 50.5t61.5 17.5q71 0 110.5 -62.5zM131 259v-34q0 -169 86 -169q44 0 65.5 40t21.5 129v34q0 89 -21.5 128.5t-65.5 39.5
q-86 0 -86 -168z" />
    <glyph glyph-name="thorn" unicode="&#xfe;" horiz-adv-x="419" 
d="M134 440q15 25 41 40t58 15q71 0 110.5 -62.5t39.5 -191.5q0 -125 -40.5 -188.5t-104.5 -63.5q-35 0 -62.5 14.5t-40.5 39.5h-4v-202h-76v824h76v-224zM131 259v-34q0 -169 86 -169q44 0 65.5 40t21.5 129v34q0 89 -21.5 128.5t-65.5 39.5q-86 0 -86 -168z" />
    <glyph glyph-name="q" unicode="q" horiz-adv-x="419" 
d="M247.5 477.5q27.5 -17.5 44.5 -50.5h5l10 57h57v-643h-75v202h-5q-13 -25 -40.5 -39.5t-62.5 -14.5q-64 0 -104.5 63.5t-40.5 188.5q0 129 39.5 191.5t110.5 62.5q34 0 61.5 -17.5zM136.5 387.5q-21.5 -39.5 -21.5 -128.5v-34q0 -89 21.5 -129t65.5 -40q87 0 87 169v34
q0 168 -87 168q-44 0 -65.5 -39.5z" />
    <glyph glyph-name="r" unicode="r" horiz-adv-x="251" 
d="M232 492q10 -3 13 -4v-79h-25q-39 0 -64 -27t-25 -87v-295h-76v484h57l11 -64h5q10 32 30 53.5t52 21.5q12 0 22 -3z" />
    <glyph glyph-name="racute" unicode="&#x155;" horiz-adv-x="251" 
d="M95 543h-65l79 122h83l1 -4zM232 492q10 -3 13 -4v-79h-25q-39 0 -64 -27t-25 -87v-295h-76v484h57l11 -64h5q10 32 30 53.5t52 21.5q12 0 22 -3z" />
    <glyph glyph-name="rcaron" unicode="&#x159;" horiz-adv-x="251" 
d="M-3 665h75l40 -73l42 73h73l-79 -124h-72zM232 492q10 -3 13 -4v-79h-25q-39 0 -64 -27t-25 -87v-295h-76v484h57l11 -64h5q10 32 30 53.5t52 21.5q12 0 22 -3z" />
    <glyph glyph-name="rcommaaccent" unicode="&#x157;" horiz-adv-x="251" 
d="M232 492q10 -3 13 -4v-79h-25q-39 0 -64 -27t-25 -87v-295h-76v484h57l11 -64h5q10 32 30 53.5t52 21.5q12 0 22 -3zM72 -204l21 66h-33v83h79v-77l-26 -72h-41z" />
    <glyph glyph-name="s" unicode="s" horiz-adv-x="376" 
d="M294 457q37 -38 37 -95l-1 -18h-78v9q0 32 -16 53.5t-51 21.5q-36 0 -50.5 -20t-14.5 -46q0 -30 21.5 -45.5t66.5 -30.5q41 -14 67.5 -28.5t45.5 -43.5t19 -76q0 -75 -42 -112t-112 -37q-78 0 -117 41t-39 101q0 11 0.5 15t0.5 5h79v-10q0 -43 22 -64.5t57 -21.5
q31 0 52 19t21 53q0 26 -12.5 42.5t-31 26t-51.5 21.5q-41 15 -65.5 28.5t-42 40.5t-17.5 71q0 64 40.5 101t109.5 37q65 0 102 -38z" />
    <glyph glyph-name="sacute" unicode="&#x15b;" horiz-adv-x="376" 
d="M198 543h-64l78 122h83l1 -4zM294 457q37 -38 37 -95l-1 -18h-78v9q0 32 -16 53.5t-51 21.5q-36 0 -50.5 -20t-14.5 -46q0 -30 21.5 -45.5t66.5 -30.5q41 -14 67.5 -28.5t45.5 -43.5t19 -76q0 -75 -42 -112t-112 -37q-78 0 -117 41t-39 101q0 11 0.5 15t0.5 5h79v-10
q0 -43 22 -64.5t57 -21.5q31 0 52 19t21 53q0 26 -12.5 42.5t-31 26t-51.5 21.5q-41 15 -65.5 28.5t-42 40.5t-17.5 71q0 64 40.5 101t109.5 37q65 0 102 -38z" />
    <glyph glyph-name="scaron" unicode="&#x161;" horiz-adv-x="376" 
d="M153 541l-78 124h73l40 -73l42 73h74l-79 -124h-72zM294 457q37 -38 37 -95l-1 -18h-78v9q0 32 -16 53.5t-51 21.5q-36 0 -50.5 -20t-14.5 -46q0 -30 21.5 -45.5t66.5 -30.5q41 -14 67.5 -28.5t45.5 -43.5t19 -76q0 -75 -42 -112t-112 -37q-78 0 -117 41t-39 101
q0 11 0.5 15t0.5 5h79v-10q0 -43 22 -64.5t57 -21.5q31 0 52 19t21 53q0 26 -12.5 42.5t-31 26t-51.5 21.5q-41 15 -65.5 28.5t-42 40.5t-17.5 71q0 64 40.5 101t109.5 37q65 0 102 -38z" />
    <glyph glyph-name="scedilla" unicode="&#x15f;" horiz-adv-x="376" 
d="M294 457q37 -38 37 -95l-1 -18h-78v9q0 32 -16 53.5t-51 21.5q-36 0 -50.5 -20t-14.5 -46q0 -30 21.5 -45.5t66.5 -30.5q41 -14 67.5 -28.5t45.5 -43.5t19 -76q0 -70 -37 -106.5t-100 -41.5l-2 -23q33 -2 53.5 -16.5t20.5 -43.5q0 -41 -29 -57.5t-67 -16.5t-77 7v45h70
q33 0 33 22q0 12 -7 17t-24 5h-30l9 62q-61 8 -92 48t-31 92q0 11 0.5 15t0.5 5h79v-10q0 -43 22 -64.5t57 -21.5q31 0 52 19t21 53q0 26 -12.5 42.5t-31 26t-51.5 21.5q-41 15 -65.5 28.5t-42 40.5t-17.5 71q0 64 40.5 101t109.5 37q65 0 102 -38z" />
    <glyph glyph-name="scircumflex" unicode="&#x15d;" horiz-adv-x="376" 
d="M230 540l-41 73l-41 -73h-73l79 124h72l78 -124h-74zM294 457q37 -38 37 -95l-1 -18h-78v9q0 32 -16 53.5t-51 21.5q-36 0 -50.5 -20t-14.5 -46q0 -30 21.5 -45.5t66.5 -30.5q41 -14 67.5 -28.5t45.5 -43.5t19 -76q0 -75 -42 -112t-112 -37q-78 0 -117 41t-39 101
q0 11 0.5 15t0.5 5h79v-10q0 -43 22 -64.5t57 -21.5q31 0 52 19t21 53q0 26 -12.5 42.5t-31 26t-51.5 21.5q-41 15 -65.5 28.5t-42 40.5t-17.5 71q0 64 40.5 101t109.5 37q65 0 102 -38z" />
    <glyph glyph-name="scommaaccent" unicode="&#x219;" horiz-adv-x="376" 
d="M30 0zM294 457q37 -38 37 -95l-1 -18h-78v9q0 32 -16 53.5t-51 21.5q-36 0 -50.5 -20t-14.5 -46q0 -30 21.5 -45.5t66.5 -30.5q41 -14 67.5 -28.5t45.5 -43.5t19 -76q0 -75 -42 -112t-112 -37q-78 0 -117 41t-39 101q0 11 0.5 15t0.5 5h79v-10q0 -43 22 -64.5t57 -21.5
q31 0 52 19t21 53q0 26 -12.5 42.5t-31 26t-51.5 21.5q-41 15 -65.5 28.5t-42 40.5t-17.5 71q0 64 40.5 101t109.5 37q65 0 102 -38zM158 -204l22 66h-31v83h78v-77l-27 -72h-42z" />
    <glyph glyph-name="germandbls" unicode="&#xdf;" horiz-adv-x="461" 
d="M358.5 629.5q48.5 -46.5 48.5 -126.5q0 -45 -25 -84.5t-63 -55.5v-3q47 -17 76.5 -63.5t29.5 -99.5q0 -58 -24.5 -103t-66.5 -69.5t-93 -24.5h-68v68h61q31 0 57 17.5t41.5 47.5t15.5 65q0 50 -33.5 86.5t-80.5 36.5h-61v68h54q42 0 72 33t30 79q0 50 -26 78.5t-74 28.5
q-50 0 -78.5 -33.5t-28.5 -98.5v-476h-76v474q0 103 52 152.5t136 49.5q76 0 124.5 -46.5z" />
    <glyph glyph-name="longs" unicode="&#x17f;" horiz-adv-x="167" 
d="M210 661v-53h-40q-44 0 -44 -43v-565h-75v416h-43v68h43v77q0 47 22.5 79t73.5 32q34 0 63 -11z" />
    <glyph glyph-name="t" unicode="t" horiz-adv-x="210" 
d="M194 416h-64v-316q0 -21 11 -32.5t32 -11.5h21v-52q-9 -6 -24 -9.5t-30 -3.5q-45 0 -65.5 32t-20.5 79v314h-42v68h42l17 134h59v-134h64v-68z" />
    <glyph glyph-name="tbar" unicode="&#x167;" horiz-adv-x="210" 
d="M194 484v-68h-64v-95h60v-63h-60v-158q0 -21 11 -32.5t32 -11.5h21v-52q-9 -6 -24 -9.5t-30 -3.5q-45 0 -65.5 32t-20.5 79v156h-39v63h39v95h-42v68h42l17 134h59v-134h64z" />
    <glyph glyph-name="tcaron" unicode="&#x165;" horiz-adv-x="282" 
d="M232 417l36 114h-36v99h92v-90l-44 -123h-48zM194 416h-64v-316q0 -21 11 -32.5t32 -11.5h21v-52q-9 -6 -24 -9.5t-30 -3.5q-45 0 -65.5 32t-20.5 79v314h-42v68h42l17 134h59v-134h64v-68z" />
    <glyph glyph-name="uni0163" unicode="&#x163;" horiz-adv-x="210" 
d="M188 -49.5q21 -14.5 21 -43.5q0 -41 -29 -57.5t-67 -16.5q-39 0 -77 7v45h70q33 0 33 22q0 12 -7 17t-24 5h-30l12 78q-18 15 -27 40t-9 55v314h-42v68h42l17 134h59v-134h64v-68h-64v-316q0 -21 11 -32.5t32 -11.5h21v-52q-9 -6 -24 -9.5t-30 -3.5h-2l-4 -24
q33 -2 54 -16.5z" />
    <glyph glyph-name="uni021B" unicode="&#x21b;" horiz-adv-x="210" 
d="M194 416h-64v-316q0 -21 11 -32.5t32 -11.5h21v-52q-9 -6 -24 -9.5t-30 -3.5q-45 0 -65.5 32t-20.5 79v314h-42v68h42l17 134h59v-134h64v-68zM76 -204l22 66h-31v83h78v-77l-27 -72h-42z" />
    <glyph glyph-name="u" unicode="u" horiz-adv-x="419" 
d="M297 56h-6q-36 -67 -116 -67q-120 0 -120 146v349h76v-344q0 -47 17.5 -65.5t50.5 -18.5q37 0 63.5 36t26.5 96v296h75v-484h-57z" />
    <glyph glyph-name="uacute" unicode="&#xfa;" horiz-adv-x="419" 
d="M218 543h-63l79 122h82l1 -4zM307 0l-10 56h-6q-36 -67 -116 -67q-120 0 -120 146v349h76v-344q0 -47 17.5 -65.5t50.5 -18.5q37 0 63.5 36t26.5 96v296h75v-484h-57z" />
    <glyph glyph-name="ubreve" unicode="&#x16d;" horiz-adv-x="419" 
d="M309 622.5q-14 -20.5 -39.5 -34t-59.5 -13.5t-60 13.5t-40 34t-14 42.5h59q3 -11 18 -21t37 -10t37.5 10t17.5 21h58q0 -22 -14 -42.5zM297 56h-6q-36 -67 -116 -67q-120 0 -120 146v349h76v-344q0 -47 17.5 -65.5t50.5 -18.5q37 0 63.5 36t26.5 96v296h75v-484h-57z" />
    <glyph glyph-name="ucircumflex" unicode="&#xfb;" horiz-adv-x="419" 
d="M210 613l-40 -73h-74l78 124h72l78 -124h-73zM297 56h-6q-36 -67 -116 -67q-120 0 -120 146v349h76v-344q0 -47 17.5 -65.5t50.5 -18.5q37 0 63.5 36t26.5 96v296h75v-484h-57z" />
    <glyph glyph-name="udieresis" unicode="&#xfc;" horiz-adv-x="419" 
d="M100 577v88h80v-88h-80zM238 577v88h81v-88h-81zM307 0l-10 56h-6q-36 -67 -116 -67q-120 0 -120 146v349h76v-344q0 -47 17.5 -65.5t50.5 -18.5q37 0 63.5 36t26.5 96v296h75v-484h-57z" />
    <glyph glyph-name="ugrave" unicode="&#xf9;" horiz-adv-x="419" 
d="M202 543l-101 118l1 4h84l79 -122h-63zM307 0l-10 56h-6q-36 -67 -116 -67q-120 0 -120 146v349h76v-344q0 -47 17.5 -65.5t50.5 -18.5q37 0 63.5 36t26.5 96v296h75v-484h-57z" />
    <glyph glyph-name="uhungarumlaut" unicode="&#x171;" horiz-adv-x="419" 
d="M185 543h-63l56 122h83l1 -4zM305 543h-64l57 122h84l1 -4zM307 0l-10 56h-6q-36 -67 -116 -67q-120 0 -120 146v349h76v-344q0 -47 17.5 -65.5t50.5 -18.5q37 0 63.5 36t26.5 96v296h75v-484h-57z" />
    <glyph glyph-name="umacron" unicode="&#x16b;" horiz-adv-x="419" 
d="M95 617h231v-66h-231v66zM297 56h-6q-36 -67 -116 -67q-120 0 -120 146v349h76v-344q0 -47 17.5 -65.5t50.5 -18.5q37 0 63.5 36t26.5 96v296h75v-484h-57z" />
    <glyph glyph-name="uogonek" unicode="&#x173;" horiz-adv-x="419" 
d="M413 -107v-48q-34 -12 -56 -12q-36 0 -61.5 19.5t-25.5 63.5q0 27 9.5 47t26.5 40l-9 53h-6q-36 -67 -116 -67q-120 0 -120 146v349h76v-344q0 -47 17.5 -65.5t50.5 -18.5q37 0 63.5 36t26.5 96v296h75v-484q-22 -31 -22 -57q0 -22 10 -36t32 -14h29z" />
    <glyph glyph-name="uring" unicode="&#x16f;" horiz-adv-x="419" 
d="M271.5 668q25.5 -26 25.5 -62q0 -37 -25.5 -63t-61.5 -26t-62 25.5t-26 63.5q0 36 25.5 62t62.5 26q36 0 61.5 -26zM176 638.5q-14 -13.5 -14 -32.5t14.5 -33.5t33.5 -14.5q18 0 32.5 14.5t14.5 33.5q0 18 -14.5 32t-32.5 14q-20 0 -34 -13.5zM297 56h-6
q-36 -67 -116 -67q-120 0 -120 146v349h76v-344q0 -47 17.5 -65.5t50.5 -18.5q37 0 63.5 36t26.5 96v296h75v-484h-57z" />
    <glyph glyph-name="utilde" unicode="&#x169;" horiz-adv-x="419" 
d="M324 598.5q-20 -29.5 -59 -29.5q-17 0 -34 7t-21 8q-16 7 -27 10.5t-23 3.5q-28 0 -31 -29h-54q0 37 20.5 66.5t58.5 29.5q13 0 27.5 -4.5t27.5 -10.5q12 -5 25.5 -9.5t24.5 -4.5q28 0 31 29h54q0 -37 -20 -66.5zM297 56h-6q-36 -67 -116 -67q-120 0 -120 146v349h76
v-344q0 -47 17.5 -65.5t50.5 -18.5q37 0 63.5 36t26.5 96v296h75v-484h-57z" />
    <glyph glyph-name="v" unicode="v" horiz-adv-x="376" 
d="M148 0l-139 484h83l66 -248q7 -22 20 -76l12 -45h4q6 24 26 98l6 21l66 250h76l-138 -484h-82z" />
    <glyph glyph-name="w" unicode="w" horiz-adv-x="544" 
d="M288 276q-6 31 -9.5 66l-4.5 45h-5q-1 -10 -4.5 -44.5t-9.5 -66.5l-50 -276h-83l-121 484h82l62 -273q6 -24 11.5 -63t6.5 -51h4q1 11 5 43.5t10 70.5l49 273h87l50 -273q6 -38 10 -70.5t5 -43.5h3q1 10 6.5 45t13.5 69l60 273h77l-121 -484h-84z" />
    <glyph glyph-name="wacute" unicode="&#x1e83;" horiz-adv-x="544" 
d="M282 543h-65l79 122h83l1 -4zM338 0l-50 276q-6 31 -9.5 66l-4.5 45h-5q-1 -10 -4.5 -44.5t-9.5 -66.5l-50 -276h-83l-121 484h82l62 -273q6 -24 11.5 -63t6.5 -51h4q1 11 5 43.5t10 70.5l49 273h87l50 -273q6 -38 10 -70.5t5 -43.5h3q1 10 6.5 45t13.5 69l60 273h77
l-121 -484h-84z" />
    <glyph glyph-name="wcircumflex" unicode="&#x175;" horiz-adv-x="544" 
d="M274 613l-43 -73h-74l79 124h72l79 -124h-74zM288 276q-6 31 -9.5 66l-4.5 45h-5q-1 -10 -4.5 -44.5t-9.5 -66.5l-50 -276h-83l-121 484h82l62 -273q6 -24 11.5 -63t6.5 -51h4q1 11 5 43.5t10 70.5l49 273h87l50 -273q6 -38 10 -70.5t5 -43.5h3q1 10 6.5 45t13.5 69
l60 273h77l-121 -484h-84z" />
    <glyph glyph-name="wdieresis" unicode="&#x1e85;" horiz-adv-x="544" 
d="M162 577v88h80v-88h-80zM301 577v88h81v-88h-81zM338 0l-50 276q-6 31 -9.5 66l-4.5 45h-5q-1 -10 -4.5 -44.5t-9.5 -66.5l-50 -276h-83l-121 484h82l62 -273q6 -24 11.5 -63t6.5 -51h4q1 11 5 43.5t10 70.5l49 273h87l50 -273q6 -38 10 -70.5t5 -43.5h3q1 10 6.5 45
t13.5 69l60 273h77l-121 -484h-84z" />
    <glyph glyph-name="wgrave" unicode="&#x1e81;" horiz-adv-x="544" 
d="M264 543l-101 118l1 4h85l78 -122h-63zM338 0l-50 276q-6 31 -9.5 66l-4.5 45h-5q-1 -10 -4.5 -44.5t-9.5 -66.5l-50 -276h-83l-121 484h82l62 -273q6 -24 11.5 -63t6.5 -51h4q1 11 5 43.5t10 70.5l49 273h87l50 -273q6 -38 10 -70.5t5 -43.5h3q1 10 6.5 45t13.5 69
l60 273h77l-121 -484h-84z" />
    <glyph glyph-name="x" unicode="x" horiz-adv-x="376" 
d="M281 0l-95 178l-98 -178h-83l142 244l-136 240h92l87 -166l91 166h84l-135 -233l141 -251h-90z" />
    <glyph glyph-name="y" unicode="y" horiz-adv-x="376" 
d="M184.5 -116q-36.5 -51 -95.5 -51q-32 0 -54 7v53h26q73 0 96 107l-148 484h83l70 -249l20 -68l17 -59h3q5 23 17 69l14 57l59 250h76l-123 -459q-24 -90 -60.5 -141z" />
    <glyph glyph-name="yacute" unicode="&#xfd;" horiz-adv-x="376" 
d="M198 543h-64l78 122h83l1 -4zM184.5 -116q-36.5 -51 -95.5 -51q-32 0 -54 7v53h26q73 0 96 107l-148 484h83l70 -249l20 -68l17 -59h3q5 23 17 69l14 57l59 250h76l-123 -459q-24 -90 -60.5 -141z" />
    <glyph glyph-name="ycircumflex" unicode="&#x177;" horiz-adv-x="376" 
d="M189 613l-41 -73h-73l79 124h72l78 -124h-74zM184.5 -116q-36.5 -51 -95.5 -51q-32 0 -54 7v53h26q73 0 96 107l-148 484h83l70 -249l20 -68l17 -59h3q5 23 17 69l14 57l59 250h76l-123 -459q-24 -90 -60.5 -141z" />
    <glyph glyph-name="ydieresis" unicode="&#xff;" horiz-adv-x="376" 
d="M79 577v88h80v-88h-80zM217 577v88h80v-88h-80zM184.5 -116q-36.5 -51 -95.5 -51q-32 0 -54 7v53h26q73 0 96 107l-148 484h83l70 -249l20 -68l17 -59h3q5 23 17 69l14 57l59 250h76l-123 -459q-24 -90 -60.5 -141z" />
    <glyph glyph-name="ygrave" unicode="&#x1ef3;" horiz-adv-x="376" 
d="M180 543l-100 118l1 4h83l79 -122h-63zM184.5 -116q-36.5 -51 -95.5 -51q-32 0 -54 7v53h26q73 0 96 107l-148 484h83l70 -249l20 -68l17 -59h3q5 23 17 69l14 57l59 250h76l-123 -459q-24 -90 -60.5 -141z" />
    <glyph glyph-name="z" unicode="z" horiz-adv-x="376" 
d="M353 68v-68h-329v35l212 381h-198v68h302v-36l-213 -380h226z" />
    <glyph glyph-name="zacute" unicode="&#x17a;" horiz-adv-x="376" 
d="M198 543h-64l78 122h83l1 -4zM127 68h226v-68h-329v35l212 381h-198v68h302v-36z" />
    <glyph glyph-name="zcaron" unicode="&#x17e;" horiz-adv-x="376" 
d="M75 665h73l40 -73l42 73h74l-79 -124h-72zM353 68v-68h-329v35l212 381h-198v68h302v-36l-213 -380h226z" />
    <glyph glyph-name="zdotaccent" unicode="&#x17c;" horiz-adv-x="376" 
d="M149 665h80v-88h-80v88zM353 68v-68h-329v35l212 381h-198v68h302v-36l-213 -380h226z" />
    <glyph glyph-name="ordfeminine" unicode="&#xaa;" horiz-adv-x="279" 
d="M274 382v-38q-11 -8 -35 -8q-20 0 -34 11t-19 29q-13 -21 -34 -32t-46 -11q-34 0 -60.5 19.5t-26.5 72.5q0 65 42 88.5t122 23.5v39q0 25 -11 38.5t-38 13.5q-25 0 -37 -15t-12 -36v-9h-54v15q0 45 29 69t77 24q50 0 75 -24t25 -69v-182q0 -10 4.5 -14.5t11.5 -4.5h21z
M183 488q-53 0 -80.5 -12.5t-27.5 -47.5q0 -25 10.5 -35.5t32.5 -10.5q25 0 45 21t20 57v28z" />
    <glyph glyph-name="ordmasculine" unicode="&#xba;" horiz-adv-x="275" 
d="M255 503q0 -171 -118 -171q-117 0 -117 171q0 88 29.5 130.5t87.5 42.5q118 0 118 -173zM76 516v-24q0 -111 61 -111q62 0 62 111v24q0 111 -62 111q-61 0 -61 -111z" />
    <glyph glyph-name="uni207F" unicode="&#x207f;" horiz-adv-x="275" 
d="M243 574v-235h-54v232q0 31 -11 43.5t-32 12.5q-25 0 -42 -23.5t-17 -63.5v-201h-55v330h43l7 -37q12 22 33 33t47 11q81 0 81 -102z" />
    <glyph glyph-name="Delta" unicode="&#x394;" horiz-adv-x="514" 
d="M503 0h-488v35l192 595h104l192 -595v-35zM107 77h293l-142 465h-3z" />
    <glyph glyph-name="Omega" unicode="&#x3a9;" horiz-adv-x="706" 
d="M536 559.5q65 -82.5 65 -244.5q0 -156 -85 -241q10 1 28 2t34 1h23v-77h-218v56q64 14 99 70t35 151v61q0 113 -43.5 171t-120.5 58t-120.5 -58t-43.5 -171v-57q0 -97 35 -153.5t98 -71.5v-56h-217v77h23l29 -1q18 -2 32 -2q-84 84 -84 241q0 162 65 244.5t183 82.5
t183 -82.5z" />
    <glyph glyph-name="mu" unicode="&#x3bc;" horiz-adv-x="419" 
d="M297 56h-6q-36 -67 -116 -67q-26 0 -44 7v-155h-76v643h76v-353q0 -41 18 -58t50 -17q37 0 63.5 36t26.5 96v296h75v-484h-57z" />
    <glyph glyph-name="pi" unicode="&#x3c0;" horiz-adv-x="512" 
d="M416 144q0 -100 11 -144h-73q-14 23 -14 135v281h-144q-5 -101 -22.5 -230t-37.5 -186h-75q22 71 40 197t20 219q-71 0 -99 -11l-11 51q35 28 134 28h350l-7 -68h-72v-272z" />
    <glyph glyph-name="uni0904" unicode="&#x904;" horiz-adv-x="614" 
d="M624 563h-81v-563h-75v251h-109v-14v-30q-1 -71 -44.5 -112t-116.5 -41t-115.5 41t-42.5 106q0 14 2 24h74v-12q0 -45 21 -68.5t60 -23.5q38 0 60.5 22.5t23.5 63.5v30q0 42 -24 62.5t-64 20.5h-42v65h45q33 0 54 22.5t21 64.5v28q0 36 -20.5 56t-51.5 20
q-33 0 -52.5 -22.5t-19.5 -66.5v-10h-75q-2 10 -2 24q0 64 42 102.5t111 38.5q66 0 105.5 -37.5t39.5 -104.5v-28q0 -76 -53 -113v-3q27 -11 44 -38h129v245h-81v67h81v58q0 22 -11.5 31.5t-36.5 9.5h-174q-64 0 -93 25.5t-29 82.5v23h75v-23q0 -22 11 -31.5t36 -9.5h174
q65 0 94 -25.5t29 -82.5v-58h81v-67z" />
    <glyph glyph-name="uni0972" unicode="&#x972;" horiz-adv-x="614" 
d="M40 0zM624 563h-81v-563h-75v251h-109v-14v-30q-1 -71 -44.5 -112t-116.5 -41t-115.5 41t-42.5 106q0 14 2 24h74v-12q0 -45 21 -68.5t60 -23.5q38 0 60.5 22.5t23.5 63.5v30q0 42 -24 62.5t-64 20.5h-42v65h45q33 0 54 22.5t21 64.5v28q0 36 -20.5 56t-51.5 20
q-33 0 -52.5 -22.5t-19.5 -66.5v-10h-75q-2 10 -2 24q0 64 42 102.5t111 38.5q66 0 105.5 -37.5t39.5 -104.5v-28q0 -76 -53 -113v-3q27 -11 44 -38h129v245h-81v67h237v-67zM414.5 729q-39.5 -39 -108.5 -39q-68 0 -107.5 39t-39.5 102h73q0 -40 21.5 -61t52.5 -21
q34 0 55 21t21 61h72q0 -63 -39.5 -102z" />
    <glyph glyph-name="uni0905" unicode="&#x905;" horiz-adv-x="614" 
d="M624 563h-81v-563h-75v251h-109v-14v-30q-1 -71 -44.5 -112t-116.5 -41t-115.5 41t-42.5 106q0 14 2 24h74v-12q0 -45 21 -68.5t60 -23.5q38 0 60.5 22.5t23.5 63.5v30q0 42 -24 62.5t-64 20.5h-42v65h45q33 0 54 22.5t21 64.5v28q0 36 -20.5 56t-51.5 20
q-33 0 -52.5 -22.5t-19.5 -66.5v-10h-75q-2 10 -2 24q0 64 42 102.5t111 38.5q66 0 105.5 -37.5t39.5 -104.5v-28q0 -76 -53 -113v-3q27 -11 44 -38h129v245h-81v67h237v-67z" />
    <glyph glyph-name="uni0906" unicode="&#x906;" horiz-adv-x="842" 
d="M852 563h-86v-563h-76v563h-147v-563h-75v251h-109v-14v-30q-1 -71 -44.5 -112t-116.5 -41t-115.5 41t-42.5 106q0 14 2 24h74v-12q0 -45 21 -68.5t60 -23.5q38 0 60.5 22.5t23.5 63.5v30q0 42 -24 62.5t-64 20.5h-42v65h45q33 0 54 22.5t21 64.5v28q0 36 -20.5 56
t-51.5 20q-33 0 -52.5 -22.5t-19.5 -66.5v-10h-75q-2 10 -2 24q0 64 42 102.5t111 38.5q66 0 105.5 -37.5t39.5 -104.5v-28q0 -76 -53 -113v-3q27 -11 44 -38h129v245h-81v67h465v-67z" />
    <glyph glyph-name="uni0907" unicode="&#x907;" horiz-adv-x="433" 
d="M159 392.5q-18 -13.5 -18 -38.5q0 -47 60 -47h38q72 0 111 -34t39 -96q0 -66 -41 -101t-109 -35q-53 0 -91 23v-101h-75v235h75v-10q0 -41 23 -61t60 -20q35 0 57 18.5t22 52.5q0 60 -76 60h-30q-69 0 -105.5 31t-36.5 87q0 59 39.5 87.5t105.5 28.5h78v91h-295v67h453
v-67h-82v-157h-158q-26 0 -44 -13.5z" />
    <glyph glyph-name="uni0908" unicode="&#x908;" horiz-adv-x="433" 
d="M159 392.5q-18 -13.5 -18 -38.5q0 -47 60 -47h38q72 0 111 -34t39 -96q0 -66 -41 -101t-109 -35q-53 0 -91 23v-101h-75v235h75v-10q0 -41 23 -61t60 -20q35 0 57 18.5t22 52.5q0 60 -76 60h-30q-69 0 -105.5 31t-36.5 87q0 59 39.5 87.5t105.5 28.5h78v91h-295v67h280
q-31 53 -31 103q0 56 42 91.5t106 35.5q17 0 21 -1v-67h-4q-43 -1 -66.5 -20.5t-23.5 -54.5q0 -39 27 -87h102v-67h-82v-157h-158q-26 0 -44 -13.5z" />
    <glyph glyph-name="uni09080902" horiz-adv-x="433" 
d="M443 630v-67h-82v-157h-158q-26 0 -44 -13.5t-18 -38.5q0 -47 60 -47h38q72 0 111 -34t39 -96q0 -66 -41 -101t-109 -35q-53 0 -91 23v-101h-75v235h75v-10q0 -41 23 -61t60 -20q35 0 57 18.5t22 52.5q0 60 -76 60h-30q-69 0 -105.5 31t-36.5 87q0 59 39.5 87.5
t105.5 28.5h78v91h-295v67h280q-31 53 -31 103q0 56 42 91.5t106 35.5q17 0 21 -1v-67h-4q-43 -1 -66.5 -20.5t-23.5 -54.5q0 -39 27 -87h102zM470 754v-84h-77v84h77z" />
    <glyph glyph-name="uni0909" unicode="&#x909;" horiz-adv-x="385" 
d="M395 563h-85q18 -31 18 -76v-15q0 -76 -53 -113v-3q28 -11 45.5 -42t17.5 -77v-30q-1 -71 -44.5 -112t-116.5 -41t-115.5 41t-42.5 106q0 14 2 24h75v-12q0 -45 21 -68.5t59 -23.5t60.5 22.5t23.5 63.5v30q0 42 -23.5 62.5t-63.5 20.5h-43v65h45q34 0 55 23t21 64v15
q0 36 -21 56t-52 20h-188v67h405v-67z" />
    <glyph glyph-name="uni090A" unicode="&#x90a;" horiz-adv-x="610" 
d="M310 563q18 -31 18 -76v-15q0 -76 -53 -113v-3q24 -10 40 -33q18 30 49.5 47.5t74.5 17.5q67 0 109.5 -47t42.5 -123q0 -79 -43 -124t-114 -45q-5 0 -21 2v65h12q42 0 66.5 25.5t24.5 67.5v20q0 45 -20.5 68.5t-59.5 23.5q-52 0 -75 -29.5t-23 -84.5q-1 -71 -44.5 -112
t-116.5 -41t-115.5 41t-42.5 106q0 14 2 24h75v-12q0 -45 21 -68.5t59 -23.5t60.5 22.5t23.5 63.5v30q0 42 -23.5 62.5t-63.5 20.5h-43v65h45q34 0 55 23t21 64v15q0 36 -21 56t-52 20h-188v67h631v-67h-311z" />
    <glyph glyph-name="uni090B" unicode="&#x90b;" horiz-adv-x="698" 
d="M368 299l190 108v41h75v-273h-32q-29 0 -47.5 -17t-18.5 -42q0 -26 18.5 -43t47.5 -17q34 0 75 13v-64q-41 -16 -79 -16q-36 0 -67.5 15.5t-51 45t-19.5 67.5q0 47 28 78.5t71 42.5v90l-190 -108v-220h-76v183l-222 -127v79l205 117l-51 68q-23 29 -46.5 41t-51.5 12
q-24 0 -51 -7l-24 -6v62l33 11q34 8 63 8q40 0 71.5 -18t61.5 -59l12 -17v216h-302v67h718v-67h-340v-264z" />
    <glyph glyph-name="uni0960" unicode="&#x960;" horiz-adv-x="698" 
d="M368 299l190 108v41h75v-273h-43q-26 0 -40.5 -14t-14.5 -36q0 -21 18.5 -35.5t47.5 -14.5h32v-62h-43q-26 0 -40.5 -14t-14.5 -36q0 -21 18.5 -35.5t47.5 -14.5q37 0 75 12v-63q-43 -17 -79 -17q-55 0 -96.5 32t-41.5 82q0 28 12.5 50.5t33.5 37.5q-46 32 -46 84
q0 42 28.5 71.5t70.5 37.5v88l-190 -108v-220h-76v183l-222 -127v79l205 117l-51 68q-23 29 -46.5 41t-51.5 12q-24 0 -51 -7l-24 -6v62l33 11q34 8 63 8q40 0 71.5 -18t61.5 -59l12 -17v216h-302v67h718v-67h-340v-264z" />
    <glyph glyph-name="uni090C" unicode="&#x90c;" horiz-adv-x="634" 
d="M478.5 83q-18.5 -17 -18.5 -42q0 -26 18.5 -43t47.5 -17q34 0 75 13v-64q-41 -16 -79 -16q-36 0 -67.5 15.5t-51 45t-19.5 67.5q0 47 28 78.5t71 42.5v115q0 107 -76 107q-38 0 -55 -32t-17 -83v-70h-78v70q0 51 -17 83t-56 32q-76 0 -76 -144q0 -91 40 -132.5t129 -41.5
h16v-63q-15 -4 -35 -4q-112 0 -170 61.5t-58 191.5q0 90 38.5 144t105.5 54q47 0 77 -25t43 -68h3q28 93 116 93q40 0 70 -24v136h-493v67h655v-67h-87v-463h-32q-29 0 -47.5 -17z" />
    <glyph glyph-name="uni0961" unicode="&#x961;" horiz-adv-x="634" 
d="M472.5 86q-14.5 -14 -14.5 -36q0 -21 18.5 -35.5t47.5 -14.5h32v-62h-43q-26 0 -40.5 -14t-14.5 -36q0 -21 18.5 -35.5t47.5 -14.5q37 0 75 12v-63q-43 -17 -79 -17q-55 0 -96.5 32t-41.5 82q0 28 12.5 50.5t33.5 37.5q-46 32 -46 84q0 43 29 72.5t72 37.5v112
q0 107 -76 107q-38 0 -55 -32t-17 -83v-60h-78v60q0 51 -17 83t-56 32q-76 0 -76 -144q0 -91 37.5 -132.5t120.5 -41.5h17v-63q-16 -4 -35 -4q-108 0 -163 61.5t-55 191.5q0 90 38.5 144t105.5 54q47 0 77 -25t43 -68h3q28 93 116 93q40 0 70 -24v136h-493v67h655v-67h-87
v-463h-45q-26 0 -40.5 -14z" />
    <glyph glyph-name="uni090D" unicode="&#x90d;" horiz-adv-x="456" 
d="M0 0zM466 563h-86v-190q0 -47 -22.5 -79t-73.5 -32q-19 0 -41 5v59h18q21 0 32 11.5t11 32.5v193h-152v-257q0 -31 14 -46l171 -166q43 -46 43 -80q0 -29 -17 -63h-62q6 29 6 47q0 13 -4.5 23.5t-15.5 22.5l-183 180q-15 16 -21.5 34t-6.5 43v262h-86v67h476v-67z
M335.5 729q-39.5 -39 -108.5 -39q-68 0 -107.5 39t-39.5 102h73q0 -40 21.5 -61t52.5 -21q34 0 55 21t21 61h72q0 -63 -39.5 -102z" />
    <glyph glyph-name="uni090E" unicode="&#x90e;" horiz-adv-x="456" 
d="M466 563h-86v-190q0 -47 -22.5 -79t-73.5 -32q-19 0 -41 5v59h18q21 0 32 11.5t11 32.5v193h-152v-257q0 -31 14 -46l171 -166q43 -46 43 -80q0 -29 -17 -63h-62q6 29 6 47q0 13 -4.5 23.5t-15.5 22.5l-183 180q-15 16 -21.5 34t-6.5 43v262h-86v67h314v58
q0 22 -11.5 31.5t-36.5 9.5h-174q-64 0 -93 25.5t-29 82.5v23h75v-23q0 -22 11 -31.5t36 -9.5h174q65 0 94 -25.5t29 -82.5v-58h87v-67z" />
    <glyph glyph-name="uni090F" unicode="&#x90f;" horiz-adv-x="456" 
d="M466 563h-86v-190q0 -47 -22.5 -79t-73.5 -32q-19 0 -41 5v59h18q21 0 32 11.5t11 32.5v193h-152v-257q0 -31 14 -46l171 -166q43 -46 43 -80q0 -29 -17 -63h-62q6 29 6 47q0 13 -4.5 23.5t-15.5 22.5l-183 180q-15 16 -21.5 34t-6.5 43v262h-86v67h476v-67z" />
    <glyph glyph-name="uni0910" unicode="&#x910;" horiz-adv-x="456" 
d="M466 563h-86v-190q0 -47 -22.5 -79t-73.5 -32q-19 0 -41 5v59h18q21 0 32 11.5t11 32.5v193h-152v-257q0 -31 14 -46l171 -166q43 -46 43 -80q0 -29 -17 -63h-62q6 29 6 47q0 13 -4.5 23.5t-15.5 22.5l-183 180q-15 16 -21.5 34t-6.5 43v262h-86v67h313l-85 276h76
l76 -276h96v-67z" />
    <glyph glyph-name="uni0911" unicode="&#x911;" horiz-adv-x="842" 
d="M40 0zM852 563h-86v-563h-76v563h-147v-563h-75v251h-109v-14v-30q-1 -71 -44.5 -112t-116.5 -41t-115.5 41t-42.5 106q0 14 2 24h74v-12q0 -45 21 -68.5t60 -23.5q38 0 60.5 22.5t23.5 63.5v30q0 42 -24 62.5t-64 20.5h-42v65h45q33 0 54 22.5t21 64.5v28q0 36 -20.5 56
t-51.5 20q-33 0 -52.5 -22.5t-19.5 -66.5v-10h-75q-2 10 -2 24q0 64 42 102.5t111 38.5q66 0 105.5 -37.5t39.5 -104.5v-28q0 -76 -53 -113v-3q27 -11 44 -38h129v245h-81v67h465v-67zM528.5 729q-39.5 -39 -108.5 -39q-68 0 -107.5 39t-39.5 102h73q0 -40 21.5 -61
t52.5 -21q34 0 55 21t21 61h72q0 -63 -39.5 -102z" />
    <glyph glyph-name="uni0912" unicode="&#x912;" horiz-adv-x="842" 
d="M852 563h-86v-563h-76v563h-147v-563h-75v251h-109v-14v-30q-1 -71 -44.5 -112t-116.5 -41t-115.5 41t-42.5 106q0 14 2 24h74v-12q0 -45 21 -68.5t60 -23.5q38 0 60.5 22.5t23.5 63.5v30q0 42 -24 62.5t-64 20.5h-42v65h45q33 0 54 22.5t21 64.5v28q0 36 -20.5 56
t-51.5 20q-33 0 -52.5 -22.5t-19.5 -66.5v-10h-75q-2 10 -2 24q0 64 42 102.5t111 38.5q66 0 105.5 -37.5t39.5 -104.5v-28q0 -76 -53 -113v-3q27 -11 44 -38h129v245h-81v67h303v58q0 22 -11.5 31.5t-36.5 9.5h-174q-64 0 -93 25.5t-29 82.5v23h75v-23q0 -22 11 -31.5
t36 -9.5h174q65 0 94 -25.5t29 -82.5v-58h87v-67z" />
    <glyph glyph-name="uni0913" unicode="&#x913;" horiz-adv-x="842" 
d="M852 563h-86v-563h-76v563h-147v-563h-75v251h-109v-14v-30q-1 -71 -44.5 -112t-116.5 -41t-115.5 41t-42.5 106q0 14 2 24h74v-12q0 -45 21 -68.5t60 -23.5q38 0 60.5 22.5t23.5 63.5v30q0 42 -24 62.5t-64 20.5h-42v65h45q33 0 54 22.5t21 64.5v28q0 36 -20.5 56
t-51.5 20q-33 0 -52.5 -22.5t-19.5 -66.5v-10h-75q-2 10 -2 24q0 64 42 102.5t111 38.5q66 0 105.5 -37.5t39.5 -104.5v-28q0 -76 -53 -113v-3q27 -11 44 -38h129v245h-81v67h302l-85 276h76l76 -276h96v-67z" />
    <glyph glyph-name="uni0914" unicode="&#x914;" horiz-adv-x="842" 
d="M852 563h-86v-563h-76v563h-147v-563h-75v251h-109v-14v-30q-1 -71 -44.5 -112t-116.5 -41t-115.5 41t-42.5 106q0 14 2 24h74v-12q0 -45 21 -68.5t60 -23.5q38 0 60.5 22.5t23.5 63.5v30q0 42 -24 62.5t-64 20.5h-42v65h45q33 0 54 22.5t21 64.5v28q0 36 -20.5 56
t-51.5 20q-33 0 -52.5 -22.5t-19.5 -66.5v-10h-75q-2 10 -2 24q0 64 42 102.5t111 38.5q66 0 105.5 -37.5t39.5 -104.5v-28q0 -76 -53 -113v-3q27 -11 44 -38h129v245h-81v67h222l-85 276h76l76 -276h17q-8 77 -8 143v133h75v-276h92v-67z" />
    <glyph glyph-name="uni0973" unicode="&#x973;" horiz-adv-x="614" 
d="M40 0zM624 563h-81v-563h-75v251h-109v-14v-30q-1 -71 -44.5 -112t-116.5 -41t-115.5 41t-42.5 106q0 14 2 24h74v-12q0 -45 21 -68.5t60 -23.5q38 0 60.5 22.5t23.5 63.5v30q0 42 -24 62.5t-64 20.5h-42v65h45q33 0 54 22.5t21 64.5v28q0 36 -20.5 56t-51.5 20
q-33 0 -52.5 -22.5t-19.5 -66.5v-10h-75q-2 10 -2 24q0 64 42 102.5t111 38.5q66 0 105.5 -37.5t39.5 -104.5v-28q0 -76 -53 -113v-3q27 -11 44 -38h129v245h-81v67h237v-67zM543 694h-76v179h76v-179z" />
    <glyph glyph-name="uni0974" unicode="&#x974;" horiz-adv-x="842" 
d="M40 0zM852 563h-86v-563h-76v563h-147v-563h-75v251h-109v-14v-30q-1 -71 -44.5 -112t-116.5 -41t-115.5 41t-42.5 106q0 14 2 24h74v-12q0 -45 21 -68.5t60 -23.5q38 0 60.5 22.5t23.5 63.5v30q0 42 -24 62.5t-64 20.5h-42v65h45q33 0 54 22.5t21 64.5v28q0 36 -20.5 56
t-51.5 20q-33 0 -52.5 -22.5t-19.5 -66.5v-10h-75q-2 10 -2 24q0 64 42 102.5t111 38.5q66 0 105.5 -37.5t39.5 -104.5v-28q0 -76 -53 -113v-3q27 -11 44 -38h129v245h-81v67h465v-67zM766 694h-76v179h76v-179z" />
    <glyph glyph-name="uni0975" unicode="&#x975;" horiz-adv-x="842" 
d="M852 563h-86v-563h-76v563h-147v-563h-75v251h-109v-14v-30q-1 -71 -44.5 -112t-116.5 -41t-115.5 41t-42.5 106q0 14 2 24h74v-12q0 -45 21 -68.5t60 -23.5q38 0 60.5 22.5t23.5 63.5v30q0 42 -24 62.5t-64 20.5h-42v65h45q33 0 54 22.5t21 64.5v28q0 36 -20.5 56
t-51.5 20q-33 0 -52.5 -22.5t-19.5 -66.5v-10h-75q-2 10 -2 24q0 64 42 102.5t111 38.5q66 0 105.5 -37.5t39.5 -104.5v-28q0 -76 -53 -113v-3q27 -11 44 -38h129v245h-81v67h256q0 22 -11.5 32t-36.5 10h-186q-64 0 -93 25.5t-29 80.5v23h75v-23q0 -25 11 -35.5t36 -10.5
h186q65 0 94 -24.5t29 -77.5h9q16 81 16 89q0 45 -46 45h-186q-63 0 -92.5 25t-29.5 79v23h75v-23q0 -23 11 -33t36 -10h186q59 0 90 -26t31 -74q0 -18 -15 -95h49v-67z" />
    <glyph glyph-name="uni0976" unicode="&#x976;" horiz-adv-x="614" 
d="M40 0zM624 563h-81v-563h-75v251h-109v-14v-30q-1 -71 -44.5 -112t-116.5 -41t-115.5 41t-42.5 106q0 14 2 24h74v-12q0 -45 21 -68.5t60 -23.5q38 0 60.5 22.5t23.5 63.5v30q0 42 -24 62.5t-64 20.5h-42v65h45q33 0 54 22.5t21 64.5v28q0 36 -20.5 56t-51.5 20
q-33 0 -52.5 -22.5t-19.5 -66.5v-10h-75q-2 10 -2 24q0 64 42 102.5t111 38.5q66 0 105.5 -37.5t39.5 -104.5v-28q0 -76 -53 -113v-3q27 -11 44 -38h129v245h-81v67h237v-67zM464.5 -89q-19.5 -28 -57 -45.5t-90.5 -17.5t-90 17.5t-56.5 45.5t-22.5 58h62q11 -25 36.5 -43.5
t70.5 -18.5q46 0 71.5 19t35.5 43h63q-3 -30 -22.5 -58z" />
    <glyph glyph-name="uni0977" unicode="&#x977;" horiz-adv-x="614" 
d="M40 0zM624 563h-81v-563h-75v251h-109v-14v-30q-1 -71 -44.5 -112t-116.5 -41t-115.5 41t-42.5 106q0 14 2 24h74v-12q0 -45 21 -68.5t60 -23.5q38 0 60.5 22.5t23.5 63.5v30q0 42 -24 62.5t-64 20.5h-42v65h45q33 0 54 22.5t21 64.5v28q0 36 -20.5 56t-51.5 20
q-33 0 -52.5 -22.5t-19.5 -66.5v-10h-75q-2 10 -2 24q0 64 42 102.5t111 38.5q66 0 105.5 -37.5t39.5 -104.5v-28q0 -76 -53 -113v-3q27 -11 44 -38h129v245h-81v67h237v-67zM487 -31zM464.5 -89q-19.5 -28 -57 -45.5t-90.5 -17.5t-90 17.5t-56.5 45.5t-22.5 58h62
q11 -25 36.5 -43.5t70.5 -18.5q46 0 71.5 19t35.5 43h63q-3 -30 -22.5 -58zM464.5 -224q-19.5 -28 -57 -45.5t-90.5 -17.5t-90 17.5t-56.5 45.5t-22.5 58h62q11 -25 36.5 -43.5t70.5 -18.5q46 0 71.5 19t35.5 43h63q-3 -30 -22.5 -58z" />
    <glyph glyph-name="uni093E" unicode="&#x93e;" 
d="M238 563h-86v-563h-76v563h-86v67h248v-67z" />
    <glyph glyph-name="uni093F" unicode="&#x93f;" 
d="M552 838.5q39 -40.5 39 -100.5q0 -29 -1 -38h-74v29q0 34 -21 61t-69 40q-30 9 -77 9h-19q-46 0 -77 -7q-56 -13 -79 -45.5t-23 -84.5v-72h87v-67h-86v-563h-76v563h-86v67h86v82q0 71 38 117.5t116 64.5q47 12 109 12q55 0 102 -11q72 -16 111 -56.5z" />
    <glyph glyph-name="iMatra_basedeva" 
d="M542 838.5q36 -40.5 36 -100.5l-62 -5q0 33 -21.5 59t-68.5 38q-30 9 -77 9h-19q-46 0 -77 -7q-56 -13 -79 -45.5t-23 -84.5v-72h87v-67h-86v-563h-76v563h-86v67h86v82q0 71 38 117.5t116 64.5q47 12 109 12q55 0 102 -11q65 -16 101 -56.5z" />
    <glyph glyph-name="uni093F0901" 
d="M694 841h-86v94h86v-94zM809 855q0 -62 -44.5 -102t-114.5 -40q-32 0 -59 9q0 -16 -1 -22h-74v29q0 34 -21 61t-69 40q-30 9 -77 9h-19q-46 0 -77 -7q-56 -13 -79 -45.5t-23 -84.5v-72h87v-67h-86v-563h-76v563h-86v67h86v82q0 71 38 117.5t116 64.5q47 12 109 12
q55 0 102 -11q54 -12 92 -40h32q0 -27 7 -44q3 -4 7 -12q20 -32 71 -32q86 0 86 88h73z" />
    <glyph glyph-name="uni093F0902" 
d="M0 0zM552 838.5q39 -40.5 39 -100.5q0 -29 -1 -38h-74v29q0 34 -21 61t-69 40q-30 9 -77 9h-19q-46 0 -77 -7q-56 -13 -79 -45.5t-23 -84.5v-72h87v-67h-86v-563h-76v563h-86v67h86v82q0 71 38 117.5t116 64.5q47 12 109 12q55 0 102 -11q72 -16 111 -56.5zM629 906h91
v-99h-91v99z" />
    <glyph glyph-name="uni093F0930094D" 
d="M671 859v-67h-4q-43 -1 -66 -20.5t-23 -54.5q0 -21 8 -47h-58q-13 32 -13 63v11q-2 29 -24 52t-65 34q-30 9 -77 9h-19q-46 0 -77 -7q-56 -13 -79 -45.5t-23 -84.5v-72h87v-67h-86v-563h-76v563h-86v67h86v82q0 71 38 117.5t116 64.5q47 12 109 12q55 0 102 -11
q76 -18 112 -71q38 36 97 36q17 0 21 -1z" />
    <glyph glyph-name="uni093F0930094D0901" 
d="M601 789.5q-23 -22.5 -23 -62.5q0 -23 8 -57h-58q-13 32 -13 63v11q-7 66 -89 86q-30 9 -77 9h-19q-46 0 -77 -7q-56 -13 -79 -45.5t-23 -84.5v-72h87v-67h-86v-563h-76v563h-86v67h86v82q0 71 38 117.5t116 64.5q47 12 109 12q55 0 102 -11q72 -18 108 -65
q19 24 45.5 37.5t55.5 13.5q17 0 21 -1v-67h-4q-43 -1 -66 -23.5zM747 729h-68v74h68v-74zM825 750q0 -46 -32 -74t-81 -28q-47 0 -80.5 28.5t-33.5 73.5h58q0 -31 12 -43.5t44 -12.5q33 0 44 12t11 44h58z" />
    <glyph glyph-name="uni093F0930094D0902" 
d="M601 771.5q-23 -19.5 -23 -54.5q0 -21 8 -47h-58q-13 32 -13 63v11q-2 29 -24 52t-65 34q-30 9 -77 9h-19q-46 0 -77 -7q-56 -13 -79 -45.5t-23 -84.5v-72h87v-67h-86v-563h-76v563h-86v67h86v82q0 71 38 117.5t116 64.5q47 12 109 12q55 0 102 -11q76 -18 112 -71
q38 36 97 36q17 0 21 -1v-67h-4q-43 -1 -66 -20.5zM704 754v-84h-77v84h77z" />
    <glyph glyph-name="uni0940" unicode="&#x940;" 
d="M238 563h-86v-563h-76v563h-86v67h86v97q0 55 -16 83.5t-56 28.5q-37 0 -54.5 -30.5t-17.5 -73.5v-35h-73q-1 11 -1 45q0 77 42 119t110 42q69 0 105.5 -44t36.5 -125v-107h86v-67z" />
    <glyph glyph-name="uni09400901" 
d="M132 724l10 -94h96v-67h-86v-563h-76v563h-86v67h79l-10 97q-5 54 -19.5 83t-47.5 29q-35 0 -47.5 -29t-12.5 -75v-35h-73q-1 11 -1 45q0 78 36.5 119.5t99.5 41.5q87 0 118 -84q10 -25 24 -37.5t50 -12.5q88 0 88 87h72q0 -63 -44.5 -102t-118.5 -39q-27 0 -51 6z
M228 812h-86v94h86v-94z" />
    <glyph glyph-name="uni09400902" 
d="M238 630v-67h-86v-563h-76v563h-86v67h79l-10 97q-5 54 -19.5 83t-47.5 29q-35 0 -47.5 -29t-12.5 -75v-35h-73q-1 11 -1 45q0 78 36.5 119.5t99.5 41.5q121 0 137 -169l11 -107h96zM257 906v-99h-91v99h91z" />
    <glyph glyph-name="uni09400930094D" 
d="M238 563h-86v-563h-76v563h-86v67h79l-10 97q-5 54 -19.5 83t-47.5 29q-35 0 -47.5 -29t-12.5 -75v-35h-73q-1 11 -1 45q0 78 36.5 119.5t99.5 41.5q92 0 123 -96q12 24 34.5 37t53.5 13q25 0 31 -1v-67h-14q-44 -1 -66 -15.5t-24 -51.5l10 -95h96v-67z" />
    <glyph glyph-name="uni09400930094D0901" 
d="M238 630v-67h-86v-563h-76v563h-86v67h79l-10 97q-5 54 -19.5 83t-47.5 29q-35 0 -47.5 -29t-12.5 -75v-35h-73q-1 11 -1 45q0 78 36.5 119.5t99.5 41.5q87 0 120 -87q11 34 34.5 53t56.5 19q25 0 31 -1v-66h-14q-44 -1 -66.5 -23t-23.5 -75l10 -96h96zM230 803h68v-74
h-68v74zM376 750q0 -46 -32 -74t-81 -28q-47 0 -80.5 28.5t-33.5 73.5h58q0 -31 12 -43.5t44 -12.5q33 0 44 12t11 44h58z" />
    <glyph glyph-name="uni09400930094D0902" 
d="M238 630v-67h-86v-563h-76v563h-86v67h79l-10 97q-5 54 -19.5 83t-47.5 29q-35 0 -47.5 -29t-12.5 -75v-35h-73q-1 11 -1 45q0 78 36.5 119.5t99.5 41.5q92 0 123 -96q12 24 34.5 37t53.5 13q25 0 31 -1v-67h-14q-44 -1 -66 -15.5t-24 -51.5l10 -95h96zM263 754v-84h-77
v84h77z" />
    <glyph glyph-name="uni0949" unicode="&#x949;" 
d="M0 0zM238 563h-86v-563h-76v563h-86v67h248v-67zM221.5 729q-39.5 -39 -108.5 -39q-68 0 -107.5 39t-39.5 102h73q0 -40 21.5 -61t52.5 -21q34 0 55 21t21 61h72q0 -63 -39.5 -102z" />
    <glyph glyph-name="uni09490902" 
d="M0 0zM238 563h-86v-563h-76v563h-86v67h248v-67zM71 905h86v-94h-86v94zM227.5 723q-44.5 -40 -114.5 -40q-69 0 -113 40t-44 102h72q0 -88 85 -88q86 0 86 88h73q0 -62 -44.5 -102z" />
    <glyph glyph-name="uni09490930094D" 
d="M238 630v-67h-86v-563h-76v563h-86v67h71q-31 53 -31 103q0 56 42 91.5t106 35.5q17 0 21 -1v-67h-4q-43 -1 -66.5 -20.5t-23.5 -54.5q0 -39 27 -87h106zM381 750q0 -47 -32 -74.5t-92 -27.5q-58 0 -91.5 27.5t-33.5 74.5h69q0 -24 15 -38t41 -14t40.5 14t14.5 38h69z
" />
    <glyph glyph-name="uni09490930094D0902" 
d="M238 630v-67h-86v-563h-76v563h-86v67h88q-31 53 -31 103q0 65 42 106.5t106 41.5q17 0 21 -1v-67h-4q-43 -1 -66.5 -26.5t-23.5 -69.5q0 -39 27 -87h89zM296 729h-68v74h68v-74zM374 750q0 -46 -32 -74t-81 -28q-47 0 -80.5 28.5t-33.5 73.5h58q0 -31 12 -43.5t44 -12.5
q33 0 44 12t11 44h58z" />
    <glyph glyph-name="uni094A" unicode="&#x94a;" 
d="M238 563h-86v-563h-76v563h-86v67h86v58q0 22 -11.5 31.5t-36.5 9.5h-174q-64 0 -93 25.5t-29 82.5v23h75v-23q0 -22 11 -31.5t36 -9.5h174q65 0 94 -25.5t29 -82.5v-58h87v-67z" />
    <glyph glyph-name="uni094A0901" 
d="M239 837h-91v99h91v-99zM151 710v-80h87v-67h-86v-563h-76v563h-86v67h86v58q0 22 -11.5 31.5t-36.5 9.5h-174q-64 0 -93 25.5t-29 82.5v23h75v-23q0 -22 11 -31.5t36 -9.5h174q14 0 20 -1q-9 24 -9 52h73q0 -88 81 -88q83 0 83 88h73q0 -63 -43.5 -102.5t-111.5 -39.5
q-21 0 -43 5z" />
    <glyph glyph-name="uni094A0902" 
d="M145 807h-91v99h91v-99zM238 563h-86v-563h-76v563h-86v67h86v58q0 22 -11.5 31.5t-36.5 9.5h-174q-64 0 -93 25.5t-29 82.5v23h75v-23q0 -22 11 -31.5t36 -9.5h174q65 0 94 -25.5t29 -82.5v-58h87v-67z" />
    <glyph glyph-name="uni094A0930094D" 
d="M238 563h-86v-563h-76v563h-86v67h74q-22 36 -28 73q-7 26 -46 26h-136q-64 0 -93 25.5t-29 82.5v23h75v-23q0 -22 11 -31.5t36 -9.5h136q32 0 56 -8q17 33 53 52.5t82 19.5q17 0 21 -1v-67h-4q-43 -1 -66.5 -20.5t-23.5 -54.5q0 -39 27 -87h103v-67z" />
    <glyph glyph-name="uni094A0930094D0901" 
d="M238 630v-67h-86v-563h-76v563h-86v67h74q-22 36 -28 73q-7 26 -46 26h-136q-64 0 -93 25.5t-29 82.5v23h75v-23q0 -22 11 -31.5t36 -9.5h136q32 0 53 -7q15 42 52 67t86 25q17 0 21 -1v-67h-4q-43 -1 -66.5 -26.5t-23.5 -69.5q0 -39 27 -87h103zM282 729h-68v74h68v-74z
M360 750q0 -46 -32 -74t-81 -28q-47 0 -80.5 28.5t-33.5 73.5h58q0 -31 12 -43.5t44 -12.5q33 0 44 12t11 44h58z" />
    <glyph glyph-name="uni094A0930094D0902" 
d="M238 630v-67h-86v-563h-76v563h-86v67h74q-22 36 -28 73q-7 26 -46 26h-136q-64 0 -93 25.5t-29 82.5v23h75v-23q0 -22 11 -31.5t36 -9.5h136q32 0 56 -8q17 33 53 52.5t82 19.5q17 0 21 -1v-67h-4q-43 -1 -66.5 -20.5t-23.5 -54.5q0 -39 27 -87h103zM264 754v-84h-77v84
h77z" />
    <glyph glyph-name="uni094B" unicode="&#x94b;" 
d="M238 563h-86v-563h-76v563h-86v67h85l-85 276h76l76 -276h96v-67z" />
    <glyph glyph-name="uni094B0901" 
d="M288.5 727q-44.5 -40 -114.5 -40q-29 0 -52 10l18 -67h98v-67h-86v-563h-76v563h-86v67h83l-85 276h76l33 -121q17 -43 77 -43q86 0 86 87h73q0 -62 -44.5 -102zM219 781h-86v94h86v-94z" />
    <glyph glyph-name="uni094B0902" 
d="M238 563h-86v-563h-76v563h-86v67h85l-85 276h76l76 -276h96v-67zM236 743h-91v99h91v-99z" />
    <glyph glyph-name="uni094B0930094D" 
d="M238 563h-86v-563h-76v563h-86v67h85l-116 276h76l52 -158v1q0 51 26 81t74 30q18 0 22 -1v-67h-4q-42 0 -65.5 -18.5t-23.5 -50.5q0 -29 22 -93h100v-67z" />
    <glyph glyph-name="uni094B0930094D0901" 
d="M238 563h-86v-563h-76v563h-86v67h81l-115 276h75l52 -158v1q0 65 26 103.5t73 38.5q19 0 23 -1v-66h-4q-42 0 -65.5 -26.5t-23.5 -74.5q0 -29 22 -93h104v-67zM278 729h-68v74h68v-74zM356 750q0 -46 -32 -74t-81 -28q-47 0 -80.5 28.5t-33.5 73.5h58q0 -31 12 -43.5
t44 -12.5q33 0 44 12t11 44h58z" />
    <glyph glyph-name="uni094B0930094D0902" 
d="M238 563h-86v-563h-76v563h-86v67h85l-116 276h76l52 -158v1q0 51 26 81t74 30q18 0 22 -1v-67h-4q-42 0 -65.5 -18.5t-23.5 -50.5q0 -29 22 -93h100v-67zM253 754v-84h-77v84h77z" />
    <glyph glyph-name="uni094C" unicode="&#x94c;" 
d="M238 563h-86v-563h-76v563h-90v67h9l-85 276h76l76 -276h17q-8 77 -8 143v133h75v-276h92v-67z" />
    <glyph glyph-name="uni094C0901" 
d="M287 727q-44 -40 -113 -40q-29 0 -56 11l19 -68h101v-67h-86v-563h-76v563h-97v67h9l-154 276h76l144 -276h16l-85 276h76l31 -112q15 -52 80 -52q87 0 87 87h72q0 -62 -44 -102zM214 781h-86v94h86v-94z" />
    <glyph glyph-name="uni094C0902" 
d="M238 563h-86v-563h-76v563h-88v67h9l-154 276h76l144 -276h16l-85 276h76l76 -276h92v-67zM236 743h-91v99h91v-99z" />
    <glyph glyph-name="uni094C0930094D" 
d="M253 859v-67h-4q-53 0 -86 -29.5t-31 -79.5l15 -53h91v-67h-86v-563h-76v563h-87v67h9l-154 276h76l144 -276h16l-85 276h76l43 -157q5 51 36 81t80 30q19 0 23 -1z" />
    <glyph glyph-name="uni094C0930094D0901" 
d="M238 563h-86v-563h-76v563h-108v67h19l-189 276h75l171 -276h32l-49 89l-78 187h75l52 -158v1q0 65 26.5 103.5t73.5 38.5q18 0 24 -1v-66h-6q-43 0 -66 -24t-23 -67q0 -30 22 -103h111v-67zM275 729h-68v74h68v-74zM353 750q0 -46 -32 -74t-81 -28q-47 0 -80.5 28.5
t-33.5 73.5h58q0 -31 12 -43.5t44 -12.5q33 0 44 12t11 44h58z" />
    <glyph glyph-name="uni094C0930094D0902" 
d="M238 563h-86v-563h-76v563h-86v67h19l-189 276h75l171 -276h32l-49 89l-78 187h75l52 -158v1q0 50 26.5 80.5t73.5 30.5q18 0 24 -1v-67h-6q-42 0 -65.5 -18.5t-23.5 -50.5q0 -29 22 -93h89v-67zM270 754v-84h-77v84h77z" />
    <glyph glyph-name="uni094E" unicode="&#x94e;" 
d="M238 563h-86v-563h-76v630h162v-67z" />
    <glyph glyph-name="uni093B" unicode="&#x93b;" 
d="M238 563h-86v-563h-76v563h-86v67h85v179h76v-179h87v-67z" />
    <glyph glyph-name="uni094F" unicode="&#x94f;" 
d="M238 563h-86v-563h-76v563h-86v67h39q0 22 -11.5 32t-36.5 10h-186q-64 0 -93 25.5t-29 80.5v23h75v-23q0 -25 11 -35.5t36 -10.5h186q65 0 94 -24.5t29 -77.5h9q16 81 16 89q0 45 -46 45h-186q-63 0 -92.5 25t-29.5 79v23h75v-23q0 -23 11 -33t36 -10h186q59 0 90 -26
t31 -74q0 -18 -15 -95h49v-67z" />
    <glyph glyph-name="uni0940.0" 
d="M238 563h-86v-563h-76v563h-86v67h86v87q0 59 -37 90.5t-132 31.5h-15q-88 0 -126 -32.5t-38 -80.5v-26h-74q-1 9 -1 35q0 83 66.5 127t180.5 44q125 0 188 -47t63 -132v-97h87v-67z" />
    <glyph glyph-name="uni09400901.0" 
d="M132 708l11 -78h95v-67h-86v-563h-76v563h-86v67h78l-14 87q-6 41 -18 66.5t-42.5 40.5t-86.5 15h-15q-88 0 -126 -32.5t-38 -80.5v-26h-74q-1 9 -1 35q0 83 67 127t179 44q91 0 142 -30t73 -90q6 -13 18 -20t36 -7q40 0 62.5 21.5t22.5 66.5h73q0 -63 -44.5 -102.5
t-115.5 -39.5q-16 0 -34 3zM213 807h-91v99h91v-99z" />
    <glyph glyph-name="uni09400902.0" 
d="M238 630v-67h-86v-563h-76v563h-86v67h78l-14 87q-6 41 -18 66.5t-42.5 40.5t-86.5 15h-15q-88 0 -126 -32.5t-38 -80.5v-26h-74q-1 9 -1 35q0 83 67 127t179 44q111 0 164 -44.5t66 -134.5l14 -97h95zM247 906v-99h-91v99h91z" />
    <glyph glyph-name="uni09400930094D.0" 
d="M238 563h-86v-563h-76v563h-86v67h78l-14 87q-6 41 -18 66.5t-42.5 40.5t-86.5 15h-15q-88 0 -126 -32.5t-38 -80.5v-26h-74q-1 9 -1 35q0 83 67 127t179 44q88 0 138.5 -27.5t73.5 -83.5q11 31 35 48t59 17q25 0 31 -1v-67h-14q-46 -1 -68 -17.5t-22 -57.5l2 -23l9 -64
h95v-67z" />
    <glyph glyph-name="uni09400930094D0901.0" 
d="M238 630v-67h-86v-563h-76v563h-86v67h78l-14 87q-6 41 -18 66.5t-42.5 40.5t-86.5 15h-15q-88 0 -126 -32.5t-38 -80.5v-26h-74q-1 9 -1 35q0 83 67 127t179 44q85 0 135.5 -26.5t74.5 -79.5q9 43 33.5 67t62.5 24q25 0 31 -1v-66h-14q-90 0 -90 -102q0 -9 2 -31l9 -61
h95zM230 803h68v-74h-68v74zM376 750q0 -46 -32 -74t-81 -28q-47 0 -80.5 28.5t-33.5 73.5h58q0 -31 12 -43.5t44 -12.5q33 0 44 12t11 44h58z" />
    <glyph glyph-name="uni09400930094D0902.0" 
d="M238 630v-67h-86v-563h-76v563h-86v67h78l-14 87q-6 41 -18 66.5t-42.5 40.5t-86.5 15h-15q-88 0 -126 -32.5t-38 -80.5v-26h-74q-1 9 -1 35q0 83 67 127t179 44q88 0 138.5 -27.5t73.5 -83.5q11 31 35 48t59 17q25 0 31 -1v-67h-14q-90 0 -90 -70q0 -9 2 -31l9 -61h95z
M263 754v-84h-77v84h77z" />
    <glyph glyph-name="uni093F.00" 
d="M452.5 842.5q34.5 -40.5 34.5 -104.5q0 -29 -1 -38h-74v29q0 42 -19 68.5t-52 35.5q-20 6 -44 6h-19q-33 0 -54 -7q-37 -11 -54.5 -42.5t-17.5 -87.5v-72h86v-67h-86v-563h-76v563h-86v67h86v82q0 75 33 121t94 62q34 11 84 11q36 0 70 -8q61 -15 95.5 -55.5z" />
    <glyph glyph-name="uni093F0901.00" 
d="M590 841h-86v94h86v-94zM705 855q0 -62 -44.5 -102t-114.5 -40q-32 0 -59 9q0 -16 -1 -22h-74v29q0 42 -19 68.5t-52 35.5q-20 6 -44 6h-19q-33 0 -54 -7q-37 -11 -54.5 -42.5t-17.5 -87.5v-72h86v-67h-86v-563h-76v563h-86v67h86v82q0 75 33 121t94 62q34 11 84 11
q36 0 70 -8q52 -13 84 -43h20q0 -16 3 -28q9 -14 15 -35q22 -25 67 -25q86 0 86 88h73z" />
    <glyph glyph-name="uni093F0902.00" 
d="M0 0zM452.5 842.5q34.5 -40.5 34.5 -104.5q0 -29 -1 -38h-74v29q0 42 -19 68.5t-52 35.5q-20 6 -44 6h-19q-33 0 -54 -7q-37 -11 -54.5 -42.5t-17.5 -87.5v-72h86v-67h-86v-563h-76v563h-86v67h86v82q0 75 33 121t94 62q34 11 84 11q36 0 70 -8q61 -15 95.5 -55.5z
M525 906h91v-99h-91v99z" />
    <glyph glyph-name="uni093F0930094D.00" 
d="M567 859v-67h-4q-43 -1 -66 -20.5t-23 -54.5q0 -21 8 -47h-58q-13 32 -13 63v10q-3 36 -21.5 58.5t-48.5 31.5q-20 6 -44 6h-19q-33 0 -54 -7q-37 -11 -54.5 -42.5t-17.5 -87.5v-72h86v-67h-86v-563h-76v563h-86v67h86v82q0 75 33 121t94 62q34 11 84 11q36 0 70 -8
q68 -17 98 -68q38 30 91 30q17 0 21 -1z" />
    <glyph glyph-name="uni093F0930094D0901.00" 
d="M474 727q0 -23 8 -57h-58q-13 32 -13 63v11q-3 35 -21.5 58t-48.5 31q-20 6 -44 6h-19q-33 0 -54 -7q-37 -11 -54.5 -42.5t-17.5 -87.5v-72h86v-67h-86v-563h-76v563h-86v67h86v82q0 75 33 121t94 62q34 11 84 11q36 0 70 -8q62 -16 94 -61q18 21 43 32.5t52 11.5
q17 0 21 -1v-67h-4q-35 -1 -57 -16.5t-29 -44.5v-9h-2q-1 -5 -1 -16zM643 729h-68v74h68v-74zM721 750q0 -46 -32 -74t-81 -28q-47 0 -80.5 28.5t-33.5 73.5h58q0 -31 12 -43.5t44 -12.5q33 0 44 12t11 44h58z" />
    <glyph glyph-name="uni093F0930094D0902.00" 
d="M497 771.5q-23 -19.5 -23 -54.5q0 -21 8 -47h-58q-13 32 -13 63v10q-3 36 -21.5 58.5t-48.5 31.5q-20 6 -44 6h-19q-33 0 -54 -7q-37 -11 -54.5 -42.5t-17.5 -87.5v-72h86v-67h-86v-563h-76v563h-86v67h86v82q0 75 33 121t94 62q34 11 84 11q36 0 70 -8q68 -17 98 -68
q38 30 91 30q17 0 21 -1v-67h-4q-43 -1 -66 -20.5zM600 754v-84h-77v84h77z" />
    <glyph glyph-name="uni093F.01" 
d="M593.5 838q39.5 -40 39.5 -100q0 -29 -1 -38h-74v28q0 35 -22 62t-70 39q-36 10 -95 10h-21q-59 0 -94 -8q-58 -13 -81.5 -45.5t-23.5 -85.5v-70h87v-67h-86v-563h-76v563h-86v67h86v80q0 147 158 184q58 12 126 12t121 -11q73 -17 112.5 -57z" />
    <glyph glyph-name="uni093F.02" 
d="M636 837q40 -40 40 -99q0 -29 -1 -38h-74v28q0 35 -22.5 61.5t-72.5 39.5q-41 10 -113 10h-22q-71 0 -111 -8q-60 -13 -84.5 -46t-24.5 -87v-68h87v-67h-86v-563h-76v563h-86v67h86v78q0 148 162 185q62 13 144 13q72 0 139 -12q75 -17 115 -57z" />
    <glyph glyph-name="uni093F.03" 
d="M678 837q41 -40 41 -99q0 -20 -2 -38h-73v27q0 35 -23.5 61.5t-74.5 39.5q-45 11 -131 11h-24q-85 0 -127 -9q-62 -13 -87.5 -46.5t-25.5 -87.5v-66h87v-67h-86v-563h-76v563h-86v67h86v76q0 149 166 187q67 13 161 13q88 0 158 -13q76 -16 117 -56z" />
    <glyph glyph-name="uni093F.04" 
d="M720 836q41 -40 41 -99q0 -28 -1 -37h-74v27q0 35 -24 61.5t-76 38.5q-51 12 -149 12h-26q-96 0 -144 -10q-64 -13 -90 -46.5t-26 -88.5v-64h87v-67h-86v-563h-76v563h-86v67h86v74q0 151 170 188q70 14 179 14q100 0 175 -13q79 -17 120 -57z" />
    <glyph glyph-name="uni093F.05" 
d="M762.5 835.5q41.5 -39.5 41.5 -98.5q0 -28 -1 -37h-74v26q0 35 -24.5 61.5t-78.5 39.5q-63 12 -167 12h-27q-102 0 -161 -10q-65 -14 -92.5 -48t-27.5 -89v-62h87v-67h-86v-563h-76v563h-86v67h86v72q0 152 174 189q72 15 196 15q116 0 194 -14q81 -17 122.5 -56.5z" />
    <glyph glyph-name="uni093F.06" 
d="M804 834.5q42 -39.5 42 -97.5q0 -28 -1 -37h-74v26q0 35 -25.5 61t-79.5 39q-66 13 -185 13h-29q-115 0 -178 -11q-67 -14 -95 -47.5t-28 -90.5v-60h87v-67h-86v-563h-76v563h-86v67h86v70q0 77 43.5 124.5t134.5 66.5q87 15 214 15q131 0 212 -15q82 -17 124 -56.5z" />
    <glyph glyph-name="uni093F.07" 
d="M889 737q0 -27 -1 -37h-74v25q0 36 -26 62t-82 38q-76 15 -203 15h-30q-124 0 -195 -13q-69 -14 -98 -48t-29 -91v-58h87v-67h-86v-563h-76v563h-86v67h86v68q0 79 44.5 125.5t137.5 66.5q88 16 231 16q142 0 231 -15q169 -36 169 -154z" />
    <glyph glyph-name="uni093F.08" 
d="M932 736q0 -16 -2 -36h-73v24q0 76 -111 101q-83 15 -221 15h-32q-137 0 -211 -14q-71 -14 -101 -48t-30 -92v-56h87v-67h-86v-563h-76v563h-86v67h86v66q0 79 45.5 126.5t140.5 66.5q91 17 249 17q157 0 249 -16q172 -36 172 -154z" />
    <glyph glyph-name="uni093F.09" 
d="M974 736q0 -26 -1 -36h-74v24q0 36 -27.5 62t-85.5 38q-86 16 -239 16h-33q-148 0 -229 -14q-73 -14 -103.5 -48.5t-30.5 -93.5v-54h87v-67h-86v-563h-76v563h-86v67h86v64q0 81 46.5 128t143.5 67q96 17 266 17q164 0 268 -17q174 -35 174 -153z" />
    <glyph glyph-name="uni093F.10" 
d="M1017 736q0 -16 -2 -36h-73v23q0 76 -116 100q-91 17 -257 17h-35q-154 0 -245 -15q-75 -14 -106.5 -48.5t-31.5 -94.5v-52h87v-67h-86v-563h-76v563h-86v67h86v62q0 82 47.5 129t146.5 67q99 18 284 18q176 0 286 -17q177 -35 177 -153z" />
    <glyph glyph-name="uni093F.11" 
d="M1059 736q0 -26 -1 -36h-74v23q0 74 -118 100q-96 17 -275 17h-36q-167 0 -263 -16q-76 -14 -108.5 -48.5t-32.5 -95.5v-50h87v-67h-86v-563h-76v563h-86v67h86v60q0 83 48 130.5t150 67.5q113 18 301 18q193 0 304 -18q180 -35 180 -152z" />
    <glyph glyph-name="uni093F.12" 
d="M1102 735q0 -25 -1 -35h-74v22q0 76 -121 100q-108 18 -293 18h-38q-179 0 -279 -16q-78 -15 -111.5 -50t-33.5 -97v-47h87v-67h-86v-563h-76v563h-86v67h86v57q0 85 49 132.5t153 67.5q114 19 319 19q208 0 322 -19q183 -34 183 -152z" />
    <glyph glyph-name="uni093F.13" 
d="M1145 735q0 -15 -2 -35h-73v21q0 75 -124 100q-113 19 -311 19h-39q-193 0 -296 -17q-81 -15 -115 -50t-34 -98v-45h87v-67h-86v-563h-76v563h-86v67h86v55q0 86 50 133.5t156 67.5q117 20 336 20q222 0 341 -20q186 -34 186 -151z" />
    <glyph glyph-name="uni093F.14" 
d="M1141.5 830q45.5 -38 45.5 -95q0 -25 -1 -35h-74v21q0 75 -126 100q-118 19 -329 19h-41q-206 0 -313 -18q-82 -15 -117 -50t-35 -99v-43h87v-67h-86v-563h-76v563h-86v67h86v53q0 87 51 134.5t159 68.5q122 20 353 20q236 0 360 -20q97 -18 142.5 -56z" />
    <glyph glyph-name="uni093F.15" 
d="M1184 829q46 -38 46 -94q0 -15 -2 -35h-73v20q0 75 -129 100q-121 20 -347 20h-43q-217 0 -329 -18q-84 -16 -120 -51t-36 -100v-41h87v-67h-86v-563h-76v563h-86v67h86v51q0 88 52 136t162 68q124 21 371 21q251 0 378 -21q99 -18 145 -56z" />
    <glyph glyph-name="uni093F.16" 
d="M1226 828.5q46 -37.5 46 -93.5q0 -25 -1 -35h-73v20q0 38 -32.5 62t-99.5 37q-126 21 -365 21h-44q-223 0 -347 -19q-86 -16 -122.5 -51t-36.5 -101v-39h87v-67h-86v-563h-76v563h-86v67h86v49q0 89 52.5 137t165.5 68q135 22 388 22q258 0 397 -22q101 -18 147 -55.5z
" />
    <glyph glyph-name="uni093F.17" 
d="M1268.5 827.5q46.5 -37.5 46.5 -93.5q0 -14 -2 -34h-73v19q0 38 -33 62.5t-101 37.5q-132 21 -384 21h-45q-236 0 -363 -20q-87 -15 -125 -51t-38 -102v-37h87v-67h-86v-563h-76v563h-86v67h86v47q0 90 53.5 138t168.5 69q141 22 406 22q270 0 415 -22
q103 -19 149.5 -56.5z" />
    <glyph glyph-name="uni093F.18" 
d="M1310.5 827q47.5 -37 47.5 -93q0 -14 -2 -34h-73v18q0 39 -33.5 63t-103.5 37q-135 22 -402 22h-46q-247 0 -380 -20q-90 -16 -128.5 -51.5t-38.5 -103.5v-35h87v-67h-86v-563h-76v563h-86v67h86v45q0 91 54.5 139t171.5 69q143 23 423 23q285 0 434 -23
q104 -19 151.5 -56z" />
    <glyph glyph-name="uni093F.19" 
d="M1352.5 826q47.5 -37 47.5 -92q0 -24 -1 -34h-74v18q0 39 -34 62.5t-105 36.5q-139 23 -420 23h-48q-261 0 -397 -21q-91 -16 -130.5 -52t-39.5 -104v-33h87v-67h-86v-563h-76v563h-86v67h86v43q0 92 55.5 140.5t174.5 69.5q149 23 441 23q300 0 451 -24
q107 -19 154.5 -56z" />
    <glyph glyph-name="uni093F.20" 
d="M1395 826q48 -37 48 -92q0 -14 -2 -34h-73v17q0 39 -35 63t-107 37q-154 23 -438 23h-49q-275 0 -414 -22q-94 -16 -134 -52t-40 -105v-31h87v-67h-86v-563h-76v563h-86v67h86v41q0 93 56.5 141.5t177.5 69.5q150 24 458 24q313 0 470 -24q109 -19 157 -56z" />
    <glyph glyph-name="uni093F.21" 
d="M1436.5 825.5q48.5 -36.5 48.5 -92.5q0 -23 -1 -33h-73v17q0 39 -35.5 62.5t-109.5 36.5q-157 24 -456 24h-51q-289 0 -431 -23q-95 -16 -135.5 -52t-40.5 -106v-29h86v-67h-86v-563h-76v563h-86v67h86v39q0 94 57 142.5t181 69.5q162 25 476 25q328 0 488 -25
q110 -19 158.5 -55.5z" />
    <glyph glyph-name="uni093F.22" 
d="M1479 824.5q49 -36.5 49 -91.5q0 -13 -2 -33h-73v16q0 40 -36 63.5t-111 35.5q-161 25 -474 25h-52q-131 0 -250.5 -6t-197.5 -17q-97 -17 -138.5 -53t-41.5 -107v-27h86v-67h-86v-563h-76v563h-86v67h86v37q0 95 58 143.5t184 70.5q167 25 493 25q344 0 507 -26
q112 -19 161 -55.5z" />
    <glyph glyph-name="uni093F.23" 
d="M1521.5 824q49.5 -36 49.5 -91q0 -13 -2 -33h-73v15q0 40 -36.5 63.5t-113.5 36.5q-167 25 -492 25h-54q-137 0 -260.5 -6t-203.5 -18q-99 -17 -141.5 -53t-42.5 -108v-25h86v-67h-86v-563h-76v563h-86v67h86v35q0 97 59 145.5t187 69.5q168 26 511 26q349 0 525 -27
q114 -19 163.5 -55z" />
    <glyph glyph-name="uni093F.24" 
d="M1563 823.5q50 -36.5 50 -90.5q0 -13 -2 -33h-73v15q0 40 -37 63t-115 36q-170 26 -510 26h-55q-319 0 -482 -25q-100 -16 -143.5 -52.5t-43.5 -109.5v-23h86v-67h-86v-563h-76v563h-86v67h86v32q0 98 59.5 147t190.5 70q171 27 528 27q362 0 544 -27q115 -19 165 -55.5z
" />
    <glyph glyph-name="uni093F.25" 
d="M1605.5 822.5q50.5 -36.5 50.5 -90.5q0 -12 -2 -32h-73v14q0 41 -38 64t-117 35q-174 27 -528 27h-57q-331 0 -498 -25q-103 -17 -147 -53.5t-44 -110.5v-21h86v-67h-86v-563h-76v563h-86v67h86v30q0 68 27.5 111t82.5 68t144 40q186 27 546 27q377 0 562 -28
q117 -19 167.5 -55.5z" />
    <glyph glyph-name="uni093F.26" 
d="M1647 822q51 -36 51 -90q0 -22 -1 -32h-73v14q0 40 -38.5 63t-119.5 36q-180 27 -546 27h-59q-344 0 -515 -26q-104 -17 -149 -54t-45 -111v-19h86v-67h-86v-563h-76v563h-86v67h86v28q0 101 61.5 150t195.5 70q190 28 564 28q394 0 580 -29q119 -19 170 -55z" />
    <glyph glyph-name="uni093F.27" 
d="M1690 821.5q51 -35.5 51 -89.5q0 -12 -2 -32h-73v13q0 41 -38.5 63.5t-121.5 35.5q-192 28 -564 28h-60q-358 0 -532 -27q-107 -17 -152.5 -53.5t-45.5 -112.5v-17h86v-67h-86v-563h-76v563h-86v67h86v26q0 69 28.5 113t84.5 69t148 40q194 28 581 28q407 0 599 -29
q122 -20 173 -55.5z" />
    <glyph glyph-name="uni093F.28" 
d="M1732.5 820.5q51.5 -35.5 51.5 -88.5q0 -12 -2 -32h-73v13q0 41 -39.5 63t-123.5 35q-196 29 -582 29h-62q-161 0 -307.5 -6.5t-240.5 -20.5q-73 -12 -117 -31.5t-64.5 -52t-20.5 -84.5v-15h86v-67h-86v-563h-76v563h-86v67h86v24q0 70 29 114t86 69t150 40
q197 29 599 29q421 0 617 -30q124 -20 175.5 -55.5z" />
    <glyph glyph-name="uni093F.29" 
d="M1774 819.5q52 -35.5 52 -88.5q0 -11 -2 -31h-73v12q0 42 -40 63.5t-125 35.5q-202 29 -600 29h-63q-168 0 -318.5 -7t-247.5 -21q-74 -12 -118.5 -31.5t-65.5 -52.5t-21 -85v-13h86v-67h-86v-563h-76v563h-86v67h86v22q0 71 29 115t87 69t153 40q198 30 616 30
q437 0 636 -31q125 -20 177 -55.5z" />
    <glyph glyph-name="uni093F.30" 
d="M1816.5 819.5q52.5 -35.5 52.5 -88.5q0 -11 -2 -31h-73v11q0 42 -40.5 64t-127.5 35q-205 30 -618 30h-65q-174 0 -328.5 -7t-253.5 -22q-76 -12 -121 -31.5t-66.5 -52.5t-21.5 -86v-11h86v-67h-86v-563h-76v563h-86v67h86v20q0 72 29.5 116.5t88.5 69.5t155 40
q215 30 634 30q449 0 654 -31q127 -20 179.5 -55.5z" />
    <glyph glyph-name="uni093F0901.01" 
d="M736 841h-86v94h86v-94zM851 855q0 -62 -44.5 -102t-114.5 -40q-32 0 -59 9q0 -16 -1 -22h-74v28q0 35 -22 62t-70 39q-36 10 -95 10h-21q-59 0 -94 -8q-58 -13 -81.5 -45.5t-23.5 -85.5v-70h87v-67h-86v-563h-76v563h-86v67h86v80q0 147 158 184q58 12 126 12t121 -11
q58 -14 93 -40h33q0 -26 8 -45q4 -5 5 -11q20 -32 72 -32q86 0 86 88h73z" />
    <glyph glyph-name="uni093F0901.02" 
d="M779 841h-86v94h86v-94zM894 855q0 -62 -44.5 -102t-114.5 -40q-32 0 -59 9q0 -16 -1 -22h-74v28q0 35 -22.5 61.5t-72.5 39.5q-41 10 -113 10h-22q-71 0 -111 -8q-60 -13 -84.5 -46t-24.5 -87v-68h87v-67h-86v-563h-76v563h-86v67h86v78q0 148 162 185q62 13 144 13
q72 0 139 -12q55 -12 94 -39h35q0 -28 10 -50l1 -2q20 -36 74 -36q86 0 86 88h73z" />
    <glyph glyph-name="uni093F0901.03" 
d="M821 841h-86v94h86v-94zM936 855q0 -62 -44.5 -102t-114.5 -40q-33 0 -58 9l-2 -22h-73v27q0 35 -23.5 61.5t-74.5 39.5q-45 11 -131 11h-24q-85 0 -127 -9q-62 -13 -87.5 -46.5t-25.5 -87.5v-66h87v-67h-86v-563h-76v563h-86v67h86v76q0 149 166 187q67 13 161 13
q88 0 158 -13q57 -12 95 -38h36q0 -26 8 -47l6 -9q20 -32 71 -32q86 0 86 88h73z" />
    <glyph glyph-name="uni093F0901.04" 
d="M864 841h-86v94h86v-94zM979 855q0 -62 -44.5 -102t-114.5 -40q-32 0 -59 9q0 -16 -1 -22h-74v27q0 35 -24 61.5t-76 38.5q-51 12 -149 12h-26q-96 0 -144 -10q-64 -13 -90 -46.5t-26 -88.5v-64h87v-67h-86v-563h-76v563h-86v67h86v74q0 151 170 188q70 14 179 14
q100 0 175 -13q62 -14 97 -38h38q0 -88 85 -88q86 0 86 88h73z" />
    <glyph glyph-name="uni093F0901.05" 
d="M906 841h-86v94h86v-94zM1021 855q0 -62 -44.5 -102t-114.5 -40q-31 0 -58 9q0 -16 -1 -22h-74v26q0 35 -24.5 61.5t-78.5 39.5q-63 12 -167 12h-27q-102 0 -161 -10q-65 -14 -92.5 -48t-27.5 -89v-62h87v-67h-86v-563h-76v563h-86v67h86v72q0 152 174 189q72 15 196 15
q116 0 194 -14q57 -11 97 -37h40q0 -88 85 -88q86 0 86 88h73z" />
    <glyph glyph-name="uni093F0901.06" 
d="M949 841h-86v94h86v-94zM1064 855q0 -62 -44.5 -102t-114.5 -40q-32 0 -59 9q0 -16 -1 -22h-74v26q0 35 -25.5 61t-79.5 39q-66 13 -185 13h-29q-115 0 -178 -11q-67 -14 -95 -47.5t-28 -90.5v-60h87v-67h-86v-563h-76v563h-86v67h86v70q0 77 43.5 124.5t134.5 66.5
q87 15 214 15q131 0 212 -15q59 -12 97 -36h43q0 -88 85 -88q86 0 86 88h73z" />
    <glyph glyph-name="uni093F0901.07" 
d="M992 841h-86v94h86v-94zM1107 855q0 -62 -44.5 -102t-114.5 -40q-32 0 -59 9q0 -16 -1 -22h-74v25q0 36 -26 62t-82 38q-76 15 -203 15h-30q-124 0 -195 -13q-69 -14 -98 -48t-29 -91v-58h87v-67h-86v-563h-76v563h-86v67h86v68q0 79 44.5 125.5t137.5 66.5q88 16 231 16
q142 0 231 -15q56 -11 99 -36h44q0 -88 85 -88q86 0 86 88h73z" />
    <glyph glyph-name="uni093F0901.08" 
d="M1034 841h-86v94h86v-94zM1149 855q0 -62 -44.5 -102t-114.5 -40q-32 0 -58 9l-2 -22h-73v24q0 76 -111 101q-83 15 -221 15h-32q-137 0 -211 -14q-71 -14 -101 -48t-30 -92v-56h87v-67h-86v-563h-76v563h-86v67h86v66q0 79 45.5 126.5t140.5 66.5q91 17 249 17
q157 0 249 -16q59 -12 99 -35h46q0 -88 85 -88q86 0 86 88h73z" />
    <glyph glyph-name="uni093F0901.09" 
d="M1077 841h-86v94h86v-94zM1192 855q0 -62 -44.5 -102t-114.5 -40q-32 0 -59 9q0 -16 -1 -22h-74v24q0 36 -27.5 62t-85.5 38q-86 16 -239 16h-33q-148 0 -229 -14q-73 -14 -103.5 -48.5t-30.5 -93.5v-54h87v-67h-86v-563h-76v563h-86v67h86v64q0 81 46.5 128t143.5 67
q96 17 266 17q164 0 268 -17q57 -11 99 -34h49q0 -88 85 -88q86 0 86 88h73z" />
    <glyph glyph-name="uni093F0901.10" 
d="M1120 841h-86v94h86v-94zM1235 855q0 -62 -44.5 -102t-114.5 -40q-32 0 -59 9l-2 -22h-73v23q0 76 -116 100q-91 17 -257 17h-35q-154 0 -245 -15q-75 -14 -106.5 -48.5t-31.5 -94.5v-52h87v-67h-86v-563h-76v563h-86v67h86v62q0 82 47.5 129t146.5 67q99 18 284 18
q176 0 286 -17q59 -12 101 -34h50q0 -88 85 -88q86 0 86 88h73z" />
    <glyph glyph-name="uni093F0901.11" 
d="M1162 841h-86v94h86v-94zM1277 855q0 -62 -44.5 -102t-114.5 -40q-32 0 -59 9q0 -16 -1 -22h-74v23q0 74 -118 100q-96 17 -275 17h-36q-167 0 -263 -16q-76 -14 -108.5 -48.5t-32.5 -95.5v-50h87v-67h-86v-563h-76v563h-86v67h86v60q0 83 48 130.5t150 67.5
q113 18 301 18q193 0 304 -18q62 -12 101 -33h53q0 -88 85 -88q86 0 86 88h73z" />
    <glyph glyph-name="uni093F0901.12" 
d="M1205 841h-86v94h86v-94zM1320 855q0 -62 -44.5 -102t-114.5 -40q-32 0 -59 9q0 -16 -1 -22h-74v22q0 76 -121 100q-108 18 -293 18h-38q-179 0 -279 -16q-78 -15 -111.5 -50t-33.5 -97v-47h87v-67h-86v-563h-76v563h-86v67h86v57q0 85 49 132.5t153 67.5q114 19 319 19
q208 0 322 -19q65 -13 102 -32h55q0 -88 85 -88q86 0 86 88h73z" />
    <glyph glyph-name="uni093F0901.13" 
d="M1248 841h-86v94h86v-94zM1363 855q0 -62 -44.5 -102t-114.5 -40q-32 0 -59 9l-2 -22h-73v21q0 75 -124 100q-113 19 -311 19h-39q-193 0 -296 -17q-81 -15 -115 -50t-34 -98v-45h87v-67h-86v-563h-76v563h-86v67h86v55q0 86 50 133.5t156 67.5q117 20 336 20
q222 0 341 -20q62 -12 101 -31h59q0 -88 85 -88q86 0 86 88h73z" />
    <glyph glyph-name="uni093F0901.14" 
d="M1290 841h-86v94h86v-94zM1405 855q0 -62 -44.5 -102t-114.5 -40q-32 0 -59 9q0 -16 -1 -22h-74v21q0 75 -126 100q-118 19 -329 19h-41q-206 0 -313 -18q-82 -15 -117 -50t-35 -99v-43h87v-67h-86v-563h-76v563h-86v67h86v53q0 87 51 134.5t159 68.5q122 20 353 20
q236 0 360 -20q63 -12 102 -31h60q0 -88 85 -88q86 0 86 88h73z" />
    <glyph glyph-name="uni093F0901.15" 
d="M1333 841h-86v94h86v-94zM1448 855q0 -62 -44.5 -102t-114.5 -40q-32 0 -59 9l-2 -22h-73v20q0 75 -129 100q-121 20 -347 20h-43q-217 0 -329 -18q-84 -16 -120 -51t-36 -100v-41h87v-67h-86v-563h-76v563h-86v67h86v51q0 88 52 136t162 68q124 21 371 21q251 0 378 -21
q62 -12 102 -30h63q0 -88 85 -88q86 0 86 88h73z" />
    <glyph glyph-name="uni093F0901.16" 
d="M1375 841h-86v94h86v-94zM1490 855q0 -62 -44.5 -102t-114.5 -40q-32 0 -59 9q0 -16 -1 -22h-73v20q0 38 -32.5 62t-99.5 37q-126 21 -365 21h-44q-223 0 -347 -19q-86 -16 -122.5 -51t-36.5 -101v-39h87v-67h-86v-563h-76v563h-86v67h86v49q0 89 52.5 137t165.5 68
q135 22 388 22q258 0 397 -22q58 -10 101 -29h66q0 -88 85 -88q86 0 86 88h73z" />
    <glyph glyph-name="uni093F0901.17" 
d="M1418 841h-86v94h86v-94zM1533 855q0 -62 -44.5 -102t-114.5 -40q-32 0 -59 9l-2 -22h-73v19q0 38 -33 62.5t-101 37.5q-132 21 -384 21h-45q-236 0 -363 -20q-87 -15 -125 -51t-38 -102v-37h87v-67h-86v-563h-76v563h-86v67h86v47q0 90 53.5 138t168.5 69q141 22 406 22
q270 0 415 -22q66 -13 102 -29h68q0 -88 85 -88q86 0 86 88h73z" />
    <glyph glyph-name="uni093F0901.18" 
d="M1461 841h-86v94h86v-94zM1576 855q0 -62 -44.5 -102t-114.5 -40q-32 0 -59 9l-2 -22h-73v18q0 39 -33.5 63t-103.5 37q-135 22 -402 22h-46q-247 0 -380 -20q-90 -16 -128.5 -51.5t-38.5 -103.5v-35h87v-67h-86v-563h-76v563h-86v67h86v45q0 91 54.5 139t171.5 69
q143 23 423 23q285 0 434 -23q57 -10 101 -28h72q0 -88 85 -88q86 0 86 88h73z" />
    <glyph glyph-name="uni093F0901.19" 
d="M1503 841h-86v94h86v-94zM1618 855q0 -62 -44.5 -102t-114.5 -40q-32 0 -59 9q0 -15 -1 -22h-74v18q0 39 -34 62.5t-105 36.5q-139 23 -420 23h-48q-261 0 -397 -21q-91 -16 -130.5 -52t-39.5 -104v-33h87v-67h-86v-563h-76v563h-86v67h86v43q0 92 55.5 140.5t174.5 69.5
q149 23 441 23q300 0 451 -24q57 -9 104 -28v1h72q0 -88 85 -88q86 0 86 88h73z" />
    <glyph glyph-name="uni093F0901.20" 
d="M1546 841h-86v94h86v-94zM1661 855q0 -62 -44.5 -102t-114.5 -40q-32 0 -59 9l-2 -22h-73v17q0 39 -35 63t-107 37q-154 23 -438 23h-49q-275 0 -414 -22q-94 -16 -134 -52t-40 -105v-31h87v-67h-86v-563h-76v563h-86v67h86v41q0 93 56.5 141.5t177.5 69.5q150 24 458 24
q313 0 470 -24q63 -10 107 -29v2h72q0 -88 85 -88q86 0 86 88h73z" />
    <glyph glyph-name="uni093F0901.21" 
d="M1588 841h-86v94h86v-94zM1703 855q0 -62 -44.5 -102t-114.5 -40q-32 0 -59 9q0 -15 -1 -22h-73v17q0 39 -35.5 62.5t-109.5 36.5q-157 24 -456 24h-51q-289 0 -431 -23q-95 -16 -135.5 -52t-40.5 -106v-29h86v-67h-86v-563h-76v563h-86v67h86v39q0 94 57 142.5t181 69.5
q162 25 476 25q328 0 488 -25q69 -13 109 -29v3h72q0 -88 85 -88q86 0 86 88h73z" />
    <glyph glyph-name="uni093F0901.22" 
d="M1630 841h-86v94h86v-94zM1745 855q0 -62 -44.5 -102t-114.5 -40q-32 0 -58 9l-2 -22h-73v16q0 40 -36 63.5t-111 35.5q-161 25 -474 25h-52q-131 0 -250.5 -6t-197.5 -17q-97 -17 -138.5 -53t-41.5 -107v-27h86v-67h-86v-563h-76v563h-86v67h86v37q0 95 58 143.5
t184 70.5q167 25 493 25q344 0 507 -26q72 -13 111 -29v4h72q0 -88 85 -88q86 0 86 88h73z" />
    <glyph glyph-name="uni093F0901.23" 
d="M1673 841h-86v94h86v-94zM1788 855q0 -62 -44.5 -102t-114.5 -40q-32 0 -58 9l-2 -22h-73v15q0 40 -36.5 63.5t-113.5 36.5q-167 25 -492 25h-54q-137 0 -260.5 -6t-203.5 -18q-99 -17 -141.5 -53t-42.5 -108v-25h86v-67h-86v-563h-76v563h-86v67h86v35q0 97 59 145.5
t187 69.5q168 26 511 26q349 0 525 -27q72 -12 114 -29v5h72q0 -88 85 -88q86 0 86 88h73z" />
    <glyph glyph-name="uni093F0901.24" 
d="M1716 841h-86v94h86v-94zM1831 855q0 -62 -44.5 -102t-114.5 -40q-32 0 -59 9l-2 -22h-73v15q0 40 -37 63t-115 36q-170 26 -510 26h-55q-319 0 -482 -25q-100 -16 -143.5 -52.5t-43.5 -109.5v-23h86v-67h-86v-563h-76v563h-86v67h86v32q0 98 59.5 147t190.5 70
q171 27 528 27q362 0 544 -27q72 -12 117 -30v6h72q0 -88 85 -88q86 0 86 88h73z" />
    <glyph glyph-name="uni093F0901.25" 
d="M1758 841h-86v94h86v-94zM1873 855q0 -62 -44.5 -102t-114.5 -40q-32 0 -58 9l-2 -22h-73v14q0 41 -38 64t-117 35q-174 27 -528 27h-57q-331 0 -498 -25q-103 -17 -147 -53.5t-44 -110.5v-21h86v-67h-86v-563h-76v563h-86v67h86v30q0 68 27.5 111t82.5 68t144 40
q186 27 546 27q377 0 562 -28q72 -12 119 -30v7h72q0 -88 85 -88q86 0 86 88h73z" />
    <glyph glyph-name="uni093F0901.26" 
d="M1801 841h-86v94h86v-94zM1916 855q0 -62 -44.5 -102t-114.5 -40q-32 0 -59 9q0 -15 -1 -22h-73v14q0 40 -38.5 63t-119.5 36q-180 27 -546 27h-59q-344 0 -515 -26q-104 -17 -149 -54t-45 -111v-19h86v-67h-86v-563h-76v563h-86v67h86v28q0 101 61.5 150t195.5 70
q190 28 564 28q394 0 580 -29q72 -11 123 -31v9h72q0 -88 85 -88q86 0 86 88h73z" />
    <glyph glyph-name="uni093F0901.27" 
d="M1843 841h-86v94h86v-94zM1958 855q0 -62 -44.5 -102t-114.5 -40q-32 0 -58 9l-2 -22h-73v13q0 41 -38.5 63.5t-121.5 35.5q-192 28 -564 28h-60q-358 0 -532 -27q-107 -17 -152.5 -53.5t-45.5 -112.5v-17h86v-67h-86v-563h-76v563h-86v67h86v26q0 69 28.5 113t84.5 69
t148 40q194 28 581 28q407 0 599 -29q81 -14 125 -32v10h72q0 -88 85 -88q86 0 86 88h73z" />
    <glyph glyph-name="uni093F0901.28" 
d="M1886 841h-86v94h86v-94zM2001 855q0 -62 -44.5 -102t-114.5 -40q-32 0 -58 9l-2 -22h-73v13q0 41 -39.5 63t-123.5 35q-196 29 -582 29h-62q-161 0 -307.5 -6.5t-240.5 -20.5q-73 -12 -117 -31.5t-64.5 -52t-20.5 -84.5v-15h86v-67h-86v-563h-76v563h-86v67h86v24
q0 70 29 114t86 69t150 40q197 29 599 29q421 0 617 -30q85 -14 128 -32v11h72q0 -88 85 -88q86 0 86 88h73z" />
    <glyph glyph-name="uni093F0901.29" 
d="M1929 841h-86v94h86v-94zM2044 855q0 -62 -44.5 -102t-114.5 -40q-32 0 -59 9l-2 -22h-73v12q0 42 -40 63.5t-125 35.5q-202 29 -600 29h-63q-168 0 -318.5 -7t-247.5 -21q-74 -12 -118.5 -31.5t-65.5 -52.5t-21 -85v-13h86v-67h-86v-563h-76v563h-86v67h86v22
q0 71 29 115t87 69t153 40q198 30 616 30q437 0 636 -31q80 -13 132 -33q-1 4 -1 13h72q0 -88 85 -88q86 0 86 88h73z" />
    <glyph glyph-name="uni093F0901.30" 
d="M1971 841h-86v94h86v-94zM2086 855q0 -62 -44.5 -102t-114.5 -40q-32 0 -58 9l-2 -22h-73v11q0 42 -40.5 64t-127.5 35q-205 30 -618 30h-65q-174 0 -328.5 -7t-253.5 -22q-76 -12 -121 -31.5t-66.5 -52.5t-21.5 -86v-11h86v-67h-86v-563h-76v563h-86v67h86v20
q0 72 29.5 116.5t88.5 69.5t155 40q215 30 634 30q449 0 654 -31q82 -13 134 -33q-1 4 -1 13h72q0 -88 85 -88q86 0 86 88h73z" />
    <glyph glyph-name="uni093F0902.01" 
d="M0 0zM593.5 838q39.5 -40 39.5 -100q0 -29 -1 -38h-74v28q0 35 -22 62t-70 39q-36 10 -95 10h-21q-59 0 -94 -8q-58 -13 -81.5 -45.5t-23.5 -85.5v-70h87v-67h-86v-563h-76v563h-86v67h86v80q0 147 158 184q58 12 126 12t121 -11q73 -17 112.5 -57zM671 906h91v-99h-91
v99z" />
    <glyph glyph-name="uni093F0902.02" 
d="M0 0zM636 837q40 -40 40 -99q0 -29 -1 -38h-74v28q0 35 -22.5 61.5t-72.5 39.5q-41 10 -113 10h-22q-71 0 -111 -8q-60 -13 -84.5 -46t-24.5 -87v-68h87v-67h-86v-563h-76v563h-86v67h86v78q0 148 162 185q62 13 144 13q72 0 139 -12q75 -17 115 -57zM714 906h91v-99h-91
v99z" />
    <glyph glyph-name="uni093F0902.03" 
d="M0 0zM678 837q41 -40 41 -99q0 -20 -2 -38h-73v27q0 35 -23.5 61.5t-74.5 39.5q-45 11 -131 11h-24q-85 0 -127 -9q-62 -13 -87.5 -46.5t-25.5 -87.5v-66h87v-67h-86v-563h-76v563h-86v67h86v76q0 149 166 187q67 13 161 13q88 0 158 -13q76 -16 117 -56zM756 906h91v-99
h-91v99z" />
    <glyph glyph-name="uni093F0902.04" 
d="M0 0zM720 836q41 -40 41 -99q0 -28 -1 -37h-74v27q0 35 -24 61.5t-76 38.5q-51 12 -149 12h-26q-96 0 -144 -10q-64 -13 -90 -46.5t-26 -88.5v-64h87v-67h-86v-563h-76v563h-86v67h86v74q0 151 170 188q70 14 179 14q100 0 175 -13q79 -17 120 -57zM799 906h91v-99h-91
v99z" />
    <glyph glyph-name="uni093F0902.05" 
d="M0 0zM762.5 835.5q41.5 -39.5 41.5 -98.5q0 -28 -1 -37h-74v26q0 35 -24.5 61.5t-78.5 39.5q-63 12 -167 12h-27q-102 0 -161 -10q-65 -14 -92.5 -48t-27.5 -89v-62h87v-67h-86v-563h-76v563h-86v67h86v72q0 152 174 189q72 15 196 15q116 0 194 -14q81 -17 122.5 -56.5z
M841 906h91v-99h-91v99z" />
    <glyph glyph-name="uni093F0902.06" 
d="M0 0zM804 834.5q42 -39.5 42 -97.5q0 -28 -1 -37h-74v26q0 35 -25.5 61t-79.5 39q-66 13 -185 13h-29q-115 0 -178 -11q-67 -14 -95 -47.5t-28 -90.5v-60h87v-67h-86v-563h-76v563h-86v67h86v70q0 77 43.5 124.5t134.5 66.5q87 15 214 15q131 0 212 -15q82 -17 124 -56.5
zM884 906h91v-99h-91v99z" />
    <glyph glyph-name="uni093F0902.07" 
d="M0 0zM889 737q0 -27 -1 -37h-74v25q0 36 -26 62t-82 38q-76 15 -203 15h-30q-124 0 -195 -13q-69 -14 -98 -48t-29 -91v-58h87v-67h-86v-563h-76v563h-86v67h86v68q0 79 44.5 125.5t137.5 66.5q88 16 231 16q142 0 231 -15q169 -36 169 -154zM927 906h91v-99h-91v99z" />
    <glyph glyph-name="uni093F0902.08" 
d="M0 0zM932 736q0 -16 -2 -36h-73v24q0 76 -111 101q-83 15 -221 15h-32q-137 0 -211 -14q-71 -14 -101 -48t-30 -92v-56h87v-67h-86v-563h-76v563h-86v67h86v66q0 79 45.5 126.5t140.5 66.5q91 17 249 17q157 0 249 -16q172 -36 172 -154zM969 906h91v-99h-91v99z" />
    <glyph glyph-name="uni093F0902.09" 
d="M0 0zM974 736q0 -26 -1 -36h-74v24q0 36 -27.5 62t-85.5 38q-86 16 -239 16h-33q-148 0 -229 -14q-73 -14 -103.5 -48.5t-30.5 -93.5v-54h87v-67h-86v-563h-76v563h-86v67h86v64q0 81 46.5 128t143.5 67q96 17 266 17q164 0 268 -17q174 -35 174 -153zM1012 906h91v-99
h-91v99z" />
    <glyph glyph-name="uni093F0902.10" 
d="M0 0zM1017 736q0 -16 -2 -36h-73v23q0 76 -116 100q-91 17 -257 17h-35q-154 0 -245 -15q-75 -14 -106.5 -48.5t-31.5 -94.5v-52h87v-67h-86v-563h-76v563h-86v67h86v62q0 82 47.5 129t146.5 67q99 18 284 18q176 0 286 -17q177 -35 177 -153zM1055 906h91v-99h-91v99z
" />
    <glyph glyph-name="uni093F0902.11" 
d="M0 0zM1059 736q0 -26 -1 -36h-74v23q0 74 -118 100q-96 17 -275 17h-36q-167 0 -263 -16q-76 -14 -108.5 -48.5t-32.5 -95.5v-50h87v-67h-86v-563h-76v563h-86v67h86v60q0 83 48 130.5t150 67.5q113 18 301 18q193 0 304 -18q180 -35 180 -152zM1097 906h91v-99h-91v99z
" />
    <glyph glyph-name="uni093F0902.12" 
d="M0 0zM1102 735q0 -25 -1 -35h-74v22q0 76 -121 100q-108 18 -293 18h-38q-179 0 -279 -16q-78 -15 -111.5 -50t-33.5 -97v-47h87v-67h-86v-563h-76v563h-86v67h86v57q0 85 49 132.5t153 67.5q114 19 319 19q208 0 322 -19q183 -34 183 -152zM1140 906h91v-99h-91v99z" />
    <glyph glyph-name="uni093F0902.13" 
d="M0 0zM1145 735q0 -15 -2 -35h-73v21q0 75 -124 100q-113 19 -311 19h-39q-193 0 -296 -17q-81 -15 -115 -50t-34 -98v-45h87v-67h-86v-563h-76v563h-86v67h86v55q0 86 50 133.5t156 67.5q117 20 336 20q222 0 341 -20q186 -34 186 -151zM1183 906h91v-99h-91v99z" />
    <glyph glyph-name="uni093F0902.14" 
d="M0 0zM1141.5 830q45.5 -38 45.5 -95q0 -25 -1 -35h-74v21q0 75 -126 100q-118 19 -329 19h-41q-206 0 -313 -18q-82 -15 -117 -50t-35 -99v-43h87v-67h-86v-563h-76v563h-86v67h86v53q0 87 51 134.5t159 68.5q122 20 353 20q236 0 360 -20q97 -18 142.5 -56zM1225 906h91
v-99h-91v99z" />
    <glyph glyph-name="uni093F0902.15" 
d="M0 0zM1184 829q46 -38 46 -94q0 -15 -2 -35h-73v20q0 75 -129 100q-121 20 -347 20h-43q-217 0 -329 -18q-84 -16 -120 -51t-36 -100v-41h87v-67h-86v-563h-76v563h-86v67h86v51q0 88 52 136t162 68q124 21 371 21q251 0 378 -21q99 -18 145 -56zM1268 906h91v-99h-91v99
z" />
    <glyph glyph-name="uni093F0902.16" 
d="M0 0zM1226 828.5q46 -37.5 46 -93.5q0 -25 -1 -35h-73v20q0 38 -32.5 62t-99.5 37q-126 21 -365 21h-44q-223 0 -347 -19q-86 -16 -122.5 -51t-36.5 -101v-39h87v-67h-86v-563h-76v563h-86v67h86v49q0 89 52.5 137t165.5 68q135 22 388 22q258 0 397 -22
q101 -18 147 -55.5zM1310 906h91v-99h-91v99z" />
    <glyph glyph-name="uni093F0902.17" 
d="M0 0zM1268.5 827.5q46.5 -37.5 46.5 -93.5q0 -14 -2 -34h-73v19q0 38 -33 62.5t-101 37.5q-132 21 -384 21h-45q-236 0 -363 -20q-87 -15 -125 -51t-38 -102v-37h87v-67h-86v-563h-76v563h-86v67h86v47q0 90 53.5 138t168.5 69q141 22 406 22q270 0 415 -22
q103 -19 149.5 -56.5zM1353 906h91v-99h-91v99z" />
    <glyph glyph-name="uni093F0902.18" 
d="M0 0zM1310.5 827q47.5 -37 47.5 -93q0 -14 -2 -34h-73v18q0 39 -33.5 63t-103.5 37q-135 22 -402 22h-46q-247 0 -380 -20q-90 -16 -128.5 -51.5t-38.5 -103.5v-35h87v-67h-86v-563h-76v563h-86v67h86v45q0 91 54.5 139t171.5 69q143 23 423 23q285 0 434 -23
q104 -19 151.5 -56zM1396 906h91v-99h-91v99z" />
    <glyph glyph-name="uni093F0902.19" 
d="M0 0zM1352.5 826q47.5 -37 47.5 -92q0 -24 -1 -34h-74v18q0 39 -34 62.5t-105 36.5q-139 23 -420 23h-48q-261 0 -397 -21q-91 -16 -130.5 -52t-39.5 -104v-33h87v-67h-86v-563h-76v563h-86v67h86v43q0 92 55.5 140.5t174.5 69.5q149 23 441 23q300 0 451 -24
q107 -19 154.5 -56zM1438 906h91v-99h-91v99z" />
    <glyph glyph-name="uni093F0902.20" 
d="M0 0zM1395 826q48 -37 48 -92q0 -14 -2 -34h-73v17q0 39 -35 63t-107 37q-154 23 -438 23h-49q-275 0 -414 -22q-94 -16 -134 -52t-40 -105v-31h87v-67h-86v-563h-76v563h-86v67h86v41q0 93 56.5 141.5t177.5 69.5q150 24 458 24q313 0 470 -24q109 -19 157 -56z
M1481 906h91v-99h-91v99z" />
    <glyph glyph-name="uni093F0902.21" 
d="M0 0zM1436.5 825.5q48.5 -36.5 48.5 -92.5q0 -23 -1 -33h-73v17q0 39 -35.5 62.5t-109.5 36.5q-157 24 -456 24h-51q-289 0 -431 -23q-95 -16 -135.5 -52t-40.5 -106v-29h86v-67h-86v-563h-76v563h-86v67h86v39q0 94 57 142.5t181 69.5q162 25 476 25q328 0 488 -25
q110 -19 158.5 -55.5zM1523 906h91v-99h-91v99z" />
    <glyph glyph-name="uni093F0902.22" 
d="M0 0zM1479 824.5q49 -36.5 49 -91.5q0 -13 -2 -33h-73v16q0 40 -36 63.5t-111 35.5q-161 25 -474 25h-52q-131 0 -250.5 -6t-197.5 -17q-97 -17 -138.5 -53t-41.5 -107v-27h86v-67h-86v-563h-76v563h-86v67h86v37q0 95 58 143.5t184 70.5q167 25 493 25q344 0 507 -26
q112 -19 161 -55.5zM1565 906h91v-99h-91v99z" />
    <glyph glyph-name="uni093F0902.23" 
d="M0 0zM1521.5 824q49.5 -36 49.5 -91q0 -13 -2 -33h-73v15q0 40 -36.5 63.5t-113.5 36.5q-167 25 -492 25h-54q-137 0 -260.5 -6t-203.5 -18q-99 -17 -141.5 -53t-42.5 -108v-25h86v-67h-86v-563h-76v563h-86v67h86v35q0 97 59 145.5t187 69.5q168 26 511 26
q349 0 525 -27q114 -19 163.5 -55zM1608 906h91v-99h-91v99z" />
    <glyph glyph-name="uni093F0902.24" 
d="M0 0zM1563 823.5q50 -36.5 50 -90.5q0 -13 -2 -33h-73v15q0 40 -37 63t-115 36q-170 26 -510 26h-55q-319 0 -482 -25q-100 -16 -143.5 -52.5t-43.5 -109.5v-23h86v-67h-86v-563h-76v563h-86v67h86v32q0 98 59.5 147t190.5 70q171 27 528 27q362 0 544 -27
q115 -19 165 -55.5zM1651 906h91v-99h-91v99z" />
    <glyph glyph-name="uni093F0902.25" 
d="M0 0zM1605.5 822.5q50.5 -36.5 50.5 -90.5q0 -12 -2 -32h-73v14q0 41 -38 64t-117 35q-174 27 -528 27h-57q-331 0 -498 -25q-103 -17 -147 -53.5t-44 -110.5v-21h86v-67h-86v-563h-76v563h-86v67h86v30q0 68 27.5 111t82.5 68t144 40q186 27 546 27q377 0 562 -28
q117 -19 167.5 -55.5zM1693 906h91v-99h-91v99z" />
    <glyph glyph-name="uni093F0902.26" 
d="M0 0zM1647 822q51 -36 51 -90q0 -22 -1 -32h-73v14q0 40 -38.5 63t-119.5 36q-180 27 -546 27h-59q-344 0 -515 -26q-104 -17 -149 -54t-45 -111v-19h86v-67h-86v-563h-76v563h-86v67h86v28q0 101 61.5 150t195.5 70q190 28 564 28q394 0 580 -29q119 -19 170 -55z
M1736 906h91v-99h-91v99z" />
    <glyph glyph-name="uni093F0902.27" 
d="M0 0zM1690 821.5q51 -35.5 51 -89.5q0 -12 -2 -32h-73v13q0 41 -38.5 63.5t-121.5 35.5q-192 28 -564 28h-60q-358 0 -532 -27q-107 -17 -152.5 -53.5t-45.5 -112.5v-17h86v-67h-86v-563h-76v563h-86v67h86v26q0 69 28.5 113t84.5 69t148 40q194 28 581 28q407 0 599 -29
q122 -20 173 -55.5zM1778 906h91v-99h-91v99z" />
    <glyph glyph-name="uni093F0902.28" 
d="M0 0zM1732.5 820.5q51.5 -35.5 51.5 -88.5q0 -12 -2 -32h-73v13q0 41 -39.5 63t-123.5 35q-196 29 -582 29h-62q-161 0 -307.5 -6.5t-240.5 -20.5q-73 -12 -117 -31.5t-64.5 -52t-20.5 -84.5v-15h86v-67h-86v-563h-76v563h-86v67h86v24q0 70 29 114t86 69t150 40
q197 29 599 29q421 0 617 -30q124 -20 175.5 -55.5zM1821 906h91v-99h-91v99z" />
    <glyph glyph-name="uni093F0902.29" 
d="M0 0zM1774 819.5q52 -35.5 52 -88.5q0 -11 -2 -31h-73v12q0 42 -40 63.5t-125 35.5q-202 29 -600 29h-63q-168 0 -318.5 -7t-247.5 -21q-74 -12 -118.5 -31.5t-65.5 -52.5t-21 -85v-13h86v-67h-86v-563h-76v563h-86v67h86v22q0 71 29 115t87 69t153 40q198 30 616 30
q437 0 636 -31q125 -20 177 -55.5zM1864 906h91v-99h-91v99z" />
    <glyph glyph-name="uni093F0902.30" 
d="M0 0zM1816.5 819.5q52.5 -35.5 52.5 -88.5q0 -11 -2 -31h-73v11q0 42 -40.5 64t-127.5 35q-205 30 -618 30h-65q-174 0 -328.5 -7t-253.5 -22q-76 -12 -121 -31.5t-66.5 -52.5t-21.5 -86v-11h86v-67h-86v-563h-76v563h-86v67h86v20q0 72 29.5 116.5t88.5 69.5t155 40
q215 30 634 30q449 0 654 -31q127 -20 179.5 -55.5zM1906 906h91v-99h-91v99z" />
    <glyph glyph-name="uni093F0930094D.01" 
d="M706 859v-67h-4q-43 -1 -66 -20.5t-23 -54.5q0 -21 8 -47h-58q-11 30 -13 59q0 81 -80 102q-37 8 -102 8h-24q-71 0 -107 -9q-44 -11 -64.5 -43.5t-20.5 -90.5v-66h86v-67h-86v-563h-76v563h-86v67h86v76q0 152 141 187q52 13 140 13q75 0 128 -11q73 -16 107 -67
q38 32 93 32q17 0 21 -1z" />
    <glyph glyph-name="uni093F0930094D.02" 
d="M749 859v-67h-4q-43 -1 -66 -20.5t-23 -54.5q0 -21 8 -47h-58q-11 30 -13 59q0 80 -83 101q-41 9 -120 9h-25q-84 0 -124 -10q-46 -11 -67.5 -43.5t-21.5 -91.5v-64h86v-67h-86v-563h-76v563h-86v67h86v74q0 153 146 188q55 14 157 14q89 0 146 -12q77 -17 109 -67
q38 33 94 33q17 0 21 -1z" />
    <glyph glyph-name="uni093F0930094D.03" 
d="M749 859v-67h-4q-43 -1 -66 -20.5t-23 -54.5q0 -21 8 -47h-58q-11 30 -13 59q0 80 -83 101q-41 9 -120 9h-25q-84 0 -124 -10q-46 -11 -67.5 -43.5t-21.5 -91.5v-64h86v-67h-86v-563h-76v563h-86v67h86v74q0 153 146 188q55 14 157 14q89 0 146 -12q77 -17 109 -67
q38 33 94 33q17 0 21 -1z" />
    <glyph glyph-name="uni093F0930094D.04" 
d="M835 859v-67h-4q-43 -1 -66 -20.5t-23 -54.5q0 -21 8 -47h-58q-13 34 -13 59q0 79 -89 100q-59 10 -156 10h-28q-102 0 -156 -11q-51 -12 -74.5 -45t-23.5 -93v-60h86v-67h-86v-563h-76v563h-86v67h86v70q0 157 155 191q69 15 191 15q116 0 182 -13q81 -18 115 -67
q37 34 95 34q17 0 21 -1z" />
    <glyph glyph-name="uni093F0930094D.05" 
d="M878 859v-67h-4q-43 -1 -66 -20.5t-23 -54.5q0 -21 8 -47h-58q-13 34 -13 60q0 77 -93 98q-60 11 -173 11h-29q-114 0 -173 -12q-53 -12 -77.5 -45t-24.5 -94v-58h86v-67h-86v-563h-76v563h-86v67h86v68q0 82 40 128.5t119 64.5q75 15 208 15q123 0 201 -14
q84 -18 118 -66q39 34 95 34q17 0 21 -1z" />
    <glyph glyph-name="uni093F0930094D.06" 
d="M920 859v-67h-4q-43 -1 -66 -20.5t-23 -54.5q0 -21 8 -47h-58q-13 32 -13 63v6q-6 69 -95 88q-65 12 -191 12h-31q-125 0 -189 -12q-55 -13 -80.5 -45.5t-25.5 -94.5v-57h86v-67h-86v-563h-76v563h-86v67h86v66q0 83 41.5 129.5t122.5 64.5q77 16 225 16q133 0 219 -14
q84 -18 120 -66q39 34 95 34q17 0 21 -1z" />
    <glyph glyph-name="uni093F0930094D.07" 
d="M963 859v-67h-4q-43 -1 -66 -20.5t-23 -54.5q0 -21 8 -47h-58q-13 32 -13 63v5q-4 70 -98 89q-71 12 -209 12h-32q-139 0 -205 -13q-58 -13 -84.5 -46t-26.5 -95v-55h86v-67h-86v-563h-76v563h-86v67h86v64q0 84 42 130.5t126 64.5q81 17 243 17q149 0 236 -15
q87 -18 123 -66q38 35 96 35q17 0 21 -1z" />
    <glyph glyph-name="uni093F0930094D.08" 
d="M1006 859v-67h-4q-43 -1 -66 -20.5t-23 -54.5q0 -21 8 -47h-58q-13 32 -13 63v4q-4 70 -101 89q-74 13 -227 13h-33q-152 0 -222 -14q-60 -13 -87.5 -46t-27.5 -96v-53h86v-67h-86v-563h-76v563h-86v67h86v62q0 85 43 131.5t130 65.5q93 17 259 17q165 0 255 -16
q88 -18 126 -65q38 35 96 35q17 0 21 -1z" />
    <glyph glyph-name="uni093F0930094D.09" 
d="M1049 859v-67h-4q-43 -1 -66 -20.5t-23 -54.5q0 -21 8 -47h-58q-13 32 -13 63v3q-4 70 -104 89q-79 14 -244 14h-36q-163 0 -238 -14q-62 -13 -90.5 -46.5t-28.5 -97.5v-51h86v-67h-86v-563h-76v563h-86v67h86v61q0 86 44 132.5t133 64.5q96 18 277 18q178 0 273 -17
q90 -18 128 -65q38 36 97 36q17 0 21 -1z" />
    <glyph glyph-name="uni093F0930094D.10" 
d="M1092 859v-67h-4q-43 -1 -66 -20.5t-23 -54.5q0 -21 8 -47h-58q-13 32 -13 63v1q-1 37 -28.5 59t-78.5 31q-90 15 -262 15h-37q-169 0 -255 -15q-65 -13 -94 -46.5t-29 -98.5v-49h86v-67h-86v-563h-76v563h-86v67h86v59q0 86 45.5 133t136.5 66q101 18 293 18
q191 0 292 -17q93 -20 130 -65q39 36 98 36q17 0 21 -1z" />
    <glyph glyph-name="uni093F0930094D.11" 
d="M1135 859v-67h-4q-43 -1 -66 -20.5t-23 -54.5q0 -21 8 -47h-58q-13 30 -13 60q0 39 -28 61.5t-82 32.5q-95 15 -280 15h-38q-183 0 -271 -16q-67 -13 -97.5 -47t-30.5 -99v-47h86v-67h-86v-563h-76v563h-86v67h86v57q0 87 46.5 134t140.5 66q102 19 310 19q207 0 309 -18
q96 -18 134 -65q18 17 43.5 27t54.5 10q17 0 21 -1z" />
    <glyph glyph-name="uni093F0930094D.12" 
d="M1178 859v-67h-4q-43 -1 -66 -20.5t-23 -54.5q0 -21 8 -47h-58q-13 30 -13 61q0 38 -29 60t-85 32q-99 16 -297 16h-40q-192 0 -287 -16q-69 -14 -100.5 -48t-31.5 -100v-45h86v-67h-86v-563h-76v563h-86v67h86v55q0 88 47 135.5t144 66.5q117 19 327 19q213 0 328 -19
q98 -18 136 -65q40 38 99 38q17 0 21 -1z" />
    <glyph glyph-name="uni093F0930094D.13" 
d="M1221 859v-67h-4q-43 -1 -66 -20.5t-23 -54.5q0 -21 8 -47h-58q-13 30 -13 61q0 38 -29.5 60t-87.5 31q-102 17 -315 17h-41q-206 0 -304 -17q-72 -14 -104 -48t-32 -101v-43h86v-67h-86v-563h-76v563h-86v67h86v53q0 89 48.5 136.5t147.5 66.5q118 20 344 20
q225 0 346 -19q99 -19 139 -65q18 18 43.5 28t55.5 10q17 0 21 -1z" />
    <glyph glyph-name="uni093F0930094D.14" 
d="M1264 859v-67h-4q-43 -1 -66 -20.5t-23 -54.5q0 -21 8 -47h-58q-13 30 -13 61q0 38 -30.5 59.5t-89.5 31.5q-107 17 -333 17h-42q-220 0 -320 -18q-75 -14 -108 -48.5t-33 -101.5v-41h86v-67h-86v-563h-76v563h-86v67h86v51q0 90 49 137.5t151 66.5q122 21 362 21
t363 -20q104 -19 142 -65q39 39 100 39q17 0 21 -1z" />
    <glyph glyph-name="uni093F0930094D.15" 
d="M1307 859v-67h-4q-43 -1 -66 -20.5t-23 -54.5q0 -21 8 -47h-58q-13 30 -13 61q0 38 -31 59t-92 31q-112 18 -351 18h-44q-231 0 -336 -18q-77 -14 -111 -49t-34 -103v-39h86v-67h-86v-563h-76v563h-86v67h86v49q0 91 50 139t155 67q126 21 378 21q255 0 382 -21
q105 -19 145 -64q37 39 100 39q17 0 21 -1z" />
    <glyph glyph-name="uni093F0930094D.16" 
d="M1349 859v-67h-4q-43 -1 -66 -20.5t-23 -54.5q0 -21 8 -47h-58q-13 32 -13 63v6q-3 33 -34.5 52.5t-90.5 28.5q-130 20 -369 20h-45q-230 0 -353 -20q-79 -15 -114 -49.5t-35 -102.5v-38h86v-67h-86v-563h-76v563h-86v67h86v47q0 92 51 140t158 67q138 22 396 22
q267 0 400 -21q103 -19 147 -64q18 18 44 28.5t56 10.5q17 0 21 -1z" />
    <glyph glyph-name="uni093F0930094D.17" 
d="M1392 859v-67h-4q-43 -1 -66 -20.5t-23 -54.5q0 -21 8 -47h-58q-13 32 -13 63v5q-3 34 -35 53t-93 28q-134 21 -387 21h-47q-240 0 -369 -20q-81 -15 -117 -50t-36 -104v-36h86v-67h-86v-563h-76v563h-86v67h86v45q0 93 52 141t162 68q143 22 412 22q282 0 419 -22
q107 -19 149 -64q18 19 44.5 29.5t56.5 10.5q17 0 21 -1z" />
    <glyph glyph-name="uni093F0930094D.18" 
d="M1435 859v-67h-4q-43 -1 -66 -20.5t-23 -54.5q0 -21 8 -47h-58q-13 32 -13 63v4q-2 34 -35 53.5t-96 28.5q-140 21 -405 21h-48q-255 0 -385 -21q-84 -15 -121 -50t-37 -105v-34h86v-67h-86v-563h-76v563h-86v67h86v43q0 94 53 142.5t165 67.5q146 23 430 23
q297 0 436 -23q111 -19 152 -63q19 19 45.5 29.5t56.5 10.5q17 0 21 -1z" />
    <glyph glyph-name="uni093F0930094D.19" 
d="M1478 859v-67h-4q-43 -1 -66 -20.5t-23 -54.5q0 -21 8 -47h-58q-13 32 -13 63v3q-2 34 -35.5 53.5t-98.5 28.5q-143 22 -423 22h-49q-269 0 -402 -22q-87 -15 -124.5 -50t-37.5 -106v-32h86v-67h-86v-563h-76v563h-86v67h86v41q0 95 54 143.5t169 67.5q147 24 447 24
q309 0 454 -23q113 -21 155 -64q18 20 44.5 30.5t57.5 10.5q17 0 21 -1z" />
    <glyph glyph-name="uni093F0930094D.20" 
d="M1521 859v-67h-4q-43 -1 -66 -20.5t-23 -54.5q0 -21 8 -47h-58q-13 32 -13 63v1q-1 35 -35.5 54.5t-102.5 28.5q-146 23 -440 23h-51q-278 0 -418 -22q-88 -16 -127 -51.5t-39 -106.5v-30h86v-67h-86v-563h-76v563h-86v67h86v39q0 96 55 144.5t172 68.5q163 24 464 24
q315 0 473 -24q115 -21 157 -64q39 42 103 42q17 0 21 -1z" />
    <glyph glyph-name="uni093F0930094D.21" 
d="M1564 859v-67h-4q-43 -1 -66 -20.5t-23 -54.5q0 -21 8 -47h-58q-13 32 -13 62q0 35 -35 55t-106 30q-152 23 -458 23h-52q-292 0 -434 -23q-91 -16 -131 -51.5t-40 -107.5v-28h86v-67h-86v-563h-76v563h-86v67h86v37q0 97 56 145.5t176 68.5q164 25 481 25q330 0 490 -25
q115 -18 161 -63q18 20 45 31t58 11q17 0 21 -1z" />
    <glyph glyph-name="uni093F0930094D.22" 
d="M1607 859v-67h-4q-43 -1 -66 -20.5t-23 -54.5q0 -21 8 -47h-58q-13 32 -13 62q0 36 -35.5 55.5t-108.5 28.5q-164 24 -476 24h-53q-133 0 -253 -6t-198 -18q-94 -16 -134.5 -51.5t-40.5 -108.5v-26h86v-67h-86v-563h-76v563h-86v67h86v35q0 98 57 146.5t180 69.5
q169 25 497 25q344 0 509 -25q117 -20 163 -64q40 43 104 43q17 0 21 -1z" />
    <glyph glyph-name="uni093F0930094D.23" 
d="M1650 859v-67h-4q-43 -1 -66 -20.5t-23 -54.5q0 -21 8 -47h-58q-13 32 -13 62q0 35 -36.5 54.5t-110.5 28.5q-168 25 -493 25h-56q-138 0 -262 -6t-205 -18q-96 -16 -137.5 -52.5t-41.5 -109.5v-24h86v-67h-86v-563h-76v563h-86v67h86v34q0 99 58 147.5t183 68.5
q171 26 515 26q357 0 527 -26q120 -20 166 -63q18 20 45 31.5t59 11.5q17 0 21 -1z" />
    <glyph glyph-name="uni093F0930094D.24" 
d="M1693 859v-67h-4q-43 -1 -66 -20.5t-23 -54.5q0 -21 8 -47h-58q-13 32 -13 62q0 35 -37 54t-113 28q-171 26 -511 26h-57q-321 0 -484 -25q-98 -16 -140.5 -52.5t-42.5 -110.5v-22h86v-67h-86v-563h-76v563h-86v67h86v32q0 99 59 148t187 70q187 26 531 26q373 0 546 -27
q122 -20 168 -63q19 21 46 32.5t59 11.5q17 0 21 -1z" />
    <glyph glyph-name="uni093F0930094D.25" 
d="M1736 859v-67h-4q-43 -1 -66 -20.5t-23 -54.5q0 -21 8 -47h-58q-13 32 -13 62q0 34 -37.5 53t-115.5 29q-177 26 -529 26h-58q-336 0 -500 -26q-101 -16 -144.5 -52.5t-43.5 -111.5v-20h86v-67h-86v-563h-76v563h-86v67h86v30q0 68 27 111.5t81.5 68.5t141.5 39
q189 27 549 27q388 0 563 -28q124 -20 172 -63q18 21 45 33t60 12q17 0 21 -1z" />
    <glyph glyph-name="uni093F0930094D.26" 
d="M1778 859v-67h-4q-43 -1 -66 -20.5t-23 -54.5q0 -21 8 -47h-58q-13 32 -13 63v5q-3 32 -41 48.5t-114 26.5q-181 27 -547 27h-60q-346 0 -516 -26q-103 -17 -147.5 -53.5t-44.5 -111.5v-19h86v-67h-86v-563h-76v563h-86v67h86v28q0 69 28 112.5t83 68.5t144 39
q190 28 566 28q400 0 581 -28q124 -20 174 -63q18 21 45 33t60 12q17 0 21 -1z" />
    <glyph glyph-name="uni093F0930094D.27" 
d="M1821 859v-67h-4q-43 -1 -66 -20.5t-23 -54.5q0 -21 8 -47h-58q-13 32 -13 63v5q-3 31 -42 48t-117 26q-183 28 -564 28h-61q-359 0 -533 -27q-106 -17 -151 -53.5t-45 -112.5v-17h86v-67h-86v-563h-76v563h-86v67h86v26q0 70 28 113.5t84 68.5t147 40q196 28 583 28
q407 0 600 -29q128 -20 176 -62q18 21 45.5 33t60.5 12q17 0 21 -1z" />
    <glyph glyph-name="uni093F0930094D.28" 
d="M1864 859v-67h-4q-43 -1 -66 -20.5t-23 -54.5q0 -21 8 -47h-58q-13 32 -13 63v4q-2 32 -41.5 48.5t-120.5 25.5q-195 29 -582 29h-62q-163 0 -309 -7t-241 -21q-108 -17 -154 -53.5t-46 -113.5v-15h86v-67h-86v-563h-76v563h-86v67h86v24q0 70 28.5 114.5t85.5 69.5
t150 39q208 29 600 29q422 0 618 -30q130 -20 178 -62q19 22 46.5 34t60.5 12q17 0 21 -1z" />
    <glyph glyph-name="uni093F0930094D.29" 
d="M1907 859v-67h-4q-43 -1 -66 -20.5t-23 -54.5q0 -21 8 -47h-58q-13 32 -13 63v3q-1 32 -41.5 48.5t-123.5 26.5q-202 29 -600 29h-64q-168 0 -318 -7t-247 -21q-74 -12 -118.5 -31.5t-65.5 -52t-21 -85.5v-13h86v-67h-86v-563h-76v563h-86v67h86v22q0 71 29 115.5
t87 69.5t152 40q214 29 617 29q434 0 636 -30q133 -21 182 -63q18 23 45.5 35t61.5 12q17 0 21 -1z" />
    <glyph glyph-name="uni093F0930094D.30" 
d="M1950 859v-67h-4q-43 -1 -66 -20.5t-23 -54.5q0 -21 8 -47h-58q-13 32 -13 63q0 33 -40.5 50t-127.5 27q-205 30 -618 30h-65q-174 0 -328.5 -7t-253.5 -22q-76 -12 -121 -31.5t-66.5 -52.5t-21.5 -86v-11h86v-67h-86v-563h-76v563h-86v67h86v20q0 72 29.5 116.5
t88.5 69.5t155 40q215 30 634 30q449 0 654 -31q134 -21 184 -62q19 22 47 34.5t61 12.5q17 0 21 -1z" />
    <glyph glyph-name="uni093F0930094D0901.01" 
d="M613 727q0 -23 8 -57h-58q-11 30 -13 59q0 81 -80 102q-37 8 -102 8h-24q-71 0 -107 -9q-44 -11 -64.5 -43.5t-20.5 -90.5v-66h86v-67h-86v-563h-76v563h-86v67h86v76q0 152 141 187q52 13 140 13q75 0 128 -11q68 -15 102 -61q19 22 44.5 34.5t53.5 12.5q17 0 21 -1v-67
h-4q-36 -1 -58.5 -18t-28.5 -47v-6h-1q-1 -5 -1 -15zM782 729h-68v74h68v-74zM860 750q0 -46 -32 -74t-81 -28q-47 0 -80.5 28.5t-33.5 73.5h58q0 -31 12 -43.5t44 -12.5q33 0 44 12t11 44h58z" />
    <glyph glyph-name="uni093F0930094D0901.02" 
d="M656 727q0 -23 8 -57h-58q-11 30 -13 59q0 80 -83 101q-41 9 -120 9h-25q-84 0 -124 -10q-46 -11 -67.5 -43.5t-21.5 -91.5v-64h86v-67h-86v-563h-76v563h-86v67h86v74q0 153 146 188q55 14 157 14q89 0 146 -12q69 -15 105 -60q41 47 98 47q17 0 21 -1v-67h-4
q-37 -1 -59.5 -18t-27.5 -48v-5h-1q-1 -5 -1 -15zM825 729h-68v74h68v-74zM903 750q0 -46 -32 -74t-81 -28q-47 0 -80.5 28.5t-33.5 73.5h58q0 -31 12 -43.5t44 -12.5q33 0 44 12t11 44h58z" />
    <glyph glyph-name="uni093F0930094D0901.03" 
d="M656 727q0 -23 8 -57h-58q-11 30 -13 59q0 80 -83 101q-41 9 -120 9h-25q-84 0 -124 -10q-46 -11 -67.5 -43.5t-21.5 -91.5v-64h86v-67h-86v-563h-76v563h-86v67h86v74q0 153 146 188q55 14 157 14q89 0 146 -12q69 -15 105 -60q41 47 98 47q17 0 21 -1v-67h-4
q-37 -1 -59.5 -18t-27.5 -48v-5h-1q-1 -5 -1 -15zM825 729h-68v74h68v-74zM903 750q0 -46 -32 -74t-81 -28q-47 0 -80.5 28.5t-33.5 73.5h58q0 -31 12 -43.5t44 -12.5q33 0 44 12t11 44h58z" />
    <glyph glyph-name="uni093F0930094D0901.04" 
d="M742 727q0 -23 8 -57h-58q-13 34 -13 59q0 79 -89 100q-59 10 -156 10h-28q-102 0 -156 -11q-51 -12 -74.5 -45t-23.5 -93v-60h86v-67h-86v-563h-76v563h-86v67h86v70q0 157 155 191q69 15 191 15q116 0 182 -13q75 -17 111 -61q18 23 44 36t55 13q17 0 21 -1v-67h-4
q-37 -1 -60 -18.5t-28 -49.5v-3q-1 -5 -1 -15zM911 729h-68v74h68v-74zM989 750q0 -46 -32 -74t-81 -28q-47 0 -80.5 28.5t-33.5 73.5h58q0 -31 12 -43.5t44 -12.5q33 0 44 12t11 44h58z" />
    <glyph glyph-name="uni093F0930094D0901.05" 
d="M785 727q0 -23 8 -57h-58q-13 34 -13 60q0 77 -93 98q-60 11 -173 11h-29q-114 0 -173 -12q-53 -12 -77.5 -45t-24.5 -94v-58h86v-67h-86v-563h-76v563h-86v67h86v68q0 82 40 128.5t119 64.5q75 15 208 15q123 0 201 -14q79 -17 113 -60q19 23 45 36t55 13q17 0 21 -1
v-67h-4q-38 -1 -60.5 -19t-27.5 -50v-2q-1 -5 -1 -15zM954 729h-68v74h68v-74zM1032 750q0 -46 -32 -74t-81 -28q-47 0 -80.5 28.5t-33.5 73.5h58q0 -31 12 -43.5t44 -12.5q33 0 44 12t11 44h58z" />
    <glyph glyph-name="uni093F0930094D0901.06" 
d="M827 727q0 -23 8 -57h-58q-13 32 -13 63v6q-6 69 -95 88q-65 12 -191 12h-31q-125 0 -189 -12q-55 -13 -80.5 -45.5t-25.5 -94.5v-57h86v-67h-86v-563h-76v563h-86v67h86v66q0 83 41.5 129.5t122.5 64.5q77 16 225 16q133 0 219 -14q79 -18 115 -60q19 23 45 36t55 13
q17 0 21 -1v-67h-4q-37 -1 -59.5 -18t-27.5 -47v-6h-1q-1 -5 -1 -15zM996 729h-68v74h68v-74zM1074 750q0 -46 -32 -74t-81 -28q-47 0 -80.5 28.5t-33.5 73.5h58q0 -31 12 -43.5t44 -12.5q33 0 44 12t11 44h58z" />
    <glyph glyph-name="uni093F0930094D0901.07" 
d="M870 727q0 -23 8 -57h-58q-13 32 -13 63v5q-4 70 -98 89q-71 12 -209 12h-32q-139 0 -205 -13q-58 -13 -84.5 -46t-26.5 -95v-55h86v-67h-86v-563h-76v563h-86v67h86v64q0 84 42 130.5t126 64.5q81 17 243 17q149 0 236 -15q81 -16 119 -60q19 23 45 36.5t55 13.5
q17 0 21 -1v-67h-4q-37 -1 -59.5 -18t-27.5 -48v-5h-1q-1 -5 -1 -15zM1039 729h-68v74h68v-74zM1117 750q0 -46 -32 -74t-81 -28q-47 0 -80.5 28.5t-33.5 73.5h58q0 -31 12 -43.5t44 -12.5q33 0 44 12t11 44h58z" />
    <glyph glyph-name="uni093F0930094D0901.08" 
d="M913 727q0 -23 8 -57h-58q-13 32 -13 63v4q-4 70 -101 89q-74 13 -227 13h-33q-152 0 -222 -14q-60 -13 -87.5 -46t-27.5 -96v-53h86v-67h-86v-563h-76v563h-86v67h86v62q0 85 43 131.5t130 65.5q93 17 259 17q165 0 255 -16q83 -16 121 -60q19 24 45.5 37.5t55.5 13.5
q17 0 21 -1v-67h-4q-37 -1 -59.5 -18t-27.5 -49v-4h-1q-1 -5 -1 -15zM1082 729h-68v74h68v-74zM1160 750q0 -46 -32 -74t-81 -28q-47 0 -80.5 28.5t-33.5 73.5h58q0 -31 12 -43.5t44 -12.5q33 0 44 12t11 44h58z" />
    <glyph glyph-name="uni093F0930094D0901.09" 
d="M956 727q0 -23 8 -57h-58q-13 32 -13 63v3q-4 70 -104 89q-79 14 -244 14h-36q-163 0 -238 -14q-62 -13 -90.5 -46.5t-28.5 -97.5v-51h86v-67h-86v-563h-76v563h-86v67h86v61q0 86 44 132.5t133 64.5q96 18 277 18q178 0 273 -17q85 -16 123 -59q19 24 46 37.5t56 13.5
q17 0 21 -1v-67h-4q-37 -1 -60 -18.5t-28 -49.5v-3q-1 -5 -1 -15zM1125 729h-68v74h68v-74zM1203 750q0 -46 -32 -74t-81 -28q-47 0 -80.5 28.5t-33.5 73.5h58q0 -31 12 -43.5t44 -12.5q33 0 44 12t11 44h58z" />
    <glyph glyph-name="uni093F0930094D0901.10" 
d="M999 727q0 -23 8 -57h-58q-13 32 -13 63v1q-1 37 -28.5 59t-78.5 31q-90 15 -262 15h-37q-169 0 -255 -15q-65 -13 -94 -46.5t-29 -98.5v-49h86v-67h-86v-563h-76v563h-86v67h86v59q0 86 45.5 133t136.5 66q101 18 293 18q191 0 292 -17q87 -18 126 -60q19 25 45.5 38.5
t56.5 13.5q17 0 21 -1v-67h-4q-38 -1 -60.5 -19t-27.5 -50v-2q-1 -5 -1 -15zM1168 729h-68v74h68v-74zM1246 750q0 -46 -32 -74t-81 -28q-47 0 -80.5 28.5t-33.5 73.5h58q0 -31 12 -43.5t44 -12.5q33 0 44 12t11 44h58z" />
    <glyph glyph-name="uni093F0930094D0901.11" 
d="M1050 670h-58q-13 30 -13 60q0 39 -28 61.5t-82 32.5q-95 15 -280 15h-38q-183 0 -271 -16q-67 -13 -97.5 -47t-30.5 -99v-47h86v-67h-86v-563h-76v563h-86v67h86v57q0 87 46.5 134t140.5 66q102 19 310 19q207 0 309 -18q92 -18 129 -60q19 25 46 39t57 14q17 0 21 -1
v-67h-4q-38 -1 -60.5 -19.5t-27.5 -51.5l-1 -15q0 -23 8 -57zM1211 729h-68v74h68v-74zM1289 750q0 -46 -32 -74t-81 -28q-47 0 -80.5 28.5t-33.5 73.5h58q0 -31 12 -43.5t44 -12.5q33 0 44 12t11 44h58z" />
    <glyph glyph-name="uni093F0930094D0901.12" 
d="M1108 789.5q-23 -22.5 -23 -62.5q0 -23 8 -57h-58q-13 30 -13 61q0 38 -29 60t-85 32q-99 16 -297 16h-40q-192 0 -287 -16q-69 -14 -100.5 -48t-31.5 -100v-45h86v-67h-86v-563h-76v563h-86v67h86v55q0 88 47 135.5t144 66.5q117 19 327 19q213 0 328 -19
q91 -16 132 -59q19 25 46 39t57 14q17 0 21 -1v-67h-4q-43 -1 -66 -23.5zM1254 729h-68v74h68v-74zM1332 750q0 -46 -32 -74t-81 -28q-47 0 -80.5 28.5t-33.5 73.5h58q0 -31 12 -43.5t44 -12.5q33 0 44 12t11 44h58z" />
    <glyph glyph-name="uni093F0930094D0901.13" 
d="M1151 789.5q-23 -22.5 -23 -62.5q0 -23 8 -57h-58q-13 30 -13 61q0 38 -29.5 60t-87.5 31q-102 17 -315 17h-41q-206 0 -304 -17q-72 -14 -104 -48t-32 -101v-43h86v-67h-86v-563h-76v563h-86v67h86v53q0 89 48.5 136.5t147.5 66.5q118 20 344 20q225 0 346 -19
q95 -18 134 -60q19 25 46.5 39.5t57.5 14.5q17 0 21 -1v-67h-4q-43 -1 -66 -23.5zM1297 729h-68v74h68v-74zM1375 750q0 -46 -32 -74t-81 -28q-47 0 -80.5 28.5t-33.5 73.5h58q0 -31 12 -43.5t44 -12.5q33 0 44 12t11 44h58z" />
    <glyph glyph-name="uni093F0930094D0901.14" 
d="M1194 789.5q-23 -22.5 -23 -62.5q0 -23 8 -57h-58q-13 30 -13 61q0 38 -30.5 59.5t-89.5 31.5q-107 17 -333 17h-42q-220 0 -320 -18q-75 -14 -108 -48.5t-33 -101.5v-41h86v-67h-86v-563h-76v563h-86v67h86v51q0 90 49 137.5t151 66.5q122 21 362 21t363 -20
q97 -18 138 -60q19 26 46 40.5t58 14.5q17 0 21 -1v-67h-4q-43 -1 -66 -23.5zM1340 729h-68v74h68v-74zM1418 750q0 -46 -32 -74t-81 -28q-47 0 -80.5 28.5t-33.5 73.5h58q0 -31 12 -43.5t44 -12.5q33 0 44 12t11 44h58z" />
    <glyph glyph-name="uni093F0930094D0901.15" 
d="M1237 789.5q-23 -22.5 -23 -62.5q0 -23 8 -57h-58q-13 30 -13 61q0 38 -31 59t-92 31q-112 18 -351 18h-44q-231 0 -336 -18q-77 -14 -111 -49t-34 -103v-39h86v-67h-86v-563h-76v563h-86v67h86v49q0 91 50 139t155 67q126 21 378 21q255 0 382 -21q99 -18 140 -60
q19 26 46.5 41t58.5 15q17 0 21 -1v-67h-4q-43 -1 -66 -23.5zM1383 729h-68v74h68v-74zM1461 750q0 -46 -32 -74t-81 -28q-47 0 -80.5 28.5t-33.5 73.5h58q0 -31 12 -43.5t44 -12.5q33 0 44 12t11 44h58z" />
    <glyph glyph-name="uni093F0930094D0901.16" 
d="M1279 789.5q-23 -22.5 -23 -62.5q0 -23 8 -57h-58q-13 32 -13 63v6q-3 33 -34.5 52.5t-90.5 28.5q-130 20 -369 20h-45q-230 0 -353 -20q-79 -15 -114 -49.5t-35 -102.5v-38h86v-67h-86v-563h-76v563h-86v67h86v47q0 92 51 140t158 67q138 22 396 22q267 0 400 -21
q100 -19 142 -60q19 26 46.5 41t58.5 15q17 0 21 -1v-67h-4q-43 -1 -66 -23.5zM1425 729h-68v74h68v-74zM1503 750q0 -46 -32 -74t-81 -28q-47 0 -80.5 28.5t-33.5 73.5h58q0 -31 12 -43.5t44 -12.5q33 0 44 12t11 44h58z" />
    <glyph glyph-name="uni093F0930094D0901.17" 
d="M1322 789.5q-23 -22.5 -23 -62.5q0 -23 8 -57h-58q-13 32 -13 63v5q-3 34 -35 53t-93 28q-134 21 -387 21h-47q-240 0 -369 -20q-81 -15 -117 -50t-36 -104v-36h86v-67h-86v-563h-76v563h-86v67h86v45q0 93 52 141t162 68q143 22 412 22q282 0 419 -22q102 -17 145 -59
q18 26 46 41t59 15q17 0 21 -1v-67h-4q-43 -1 -66 -23.5zM1468 729h-68v74h68v-74zM1546 750q0 -46 -32 -74t-81 -28q-47 0 -80.5 28.5t-33.5 73.5h58q0 -31 12 -43.5t44 -12.5q33 0 44 12t11 44h58z" />
    <glyph glyph-name="uni093F0930094D0901.18" 
d="M1365 789.5q-23 -22.5 -23 -62.5q0 -23 8 -57h-58q-13 32 -13 63v4q-2 34 -35 53.5t-96 28.5q-140 21 -405 21h-48q-255 0 -385 -21q-84 -15 -121 -50t-37 -105v-34h86v-67h-86v-563h-76v563h-86v67h86v43q0 94 53 142.5t165 67.5q146 23 430 23q297 0 436 -23
q105 -17 148 -59q19 26 47 41.5t59 15.5q17 0 21 -1v-67h-4q-43 -1 -66 -23.5zM1511 729h-68v74h68v-74zM1589 750q0 -46 -32 -74t-81 -28q-47 0 -80.5 28.5t-33.5 73.5h58q0 -31 12 -43.5t44 -12.5q33 0 44 12t11 44h58z" />
    <glyph glyph-name="uni093F0930094D0901.19" 
d="M1408 789.5q-23 -22.5 -23 -62.5q0 -23 8 -57h-58q-13 32 -13 63v3q-2 34 -35.5 53.5t-98.5 28.5q-143 22 -423 22h-49q-269 0 -402 -22q-87 -15 -124.5 -50t-37.5 -106v-32h86v-67h-86v-563h-76v563h-86v67h86v41q0 95 54 143.5t169 67.5q147 24 447 24q309 0 454 -23
q107 -19 151 -60q18 27 46 42.5t60 15.5q17 0 21 -1v-67h-4q-43 -1 -66 -23.5zM1554 729h-68v74h68v-74zM1632 750q0 -46 -32 -74t-81 -28q-47 0 -80.5 28.5t-33.5 73.5h58q0 -31 12 -43.5t44 -12.5q33 0 44 12t11 44h58z" />
    <glyph glyph-name="uni093F0930094D0901.20" 
d="M1451 789.5q-23 -22.5 -23 -62.5q0 -23 8 -57h-58q-13 32 -13 63v1q-1 35 -35.5 54.5t-102.5 28.5q-146 23 -440 23h-51q-278 0 -418 -22q-88 -16 -127 -51.5t-39 -106.5v-30h86v-67h-86v-563h-76v563h-86v67h86v39q0 96 55 144.5t172 68.5q163 24 464 24q315 0 473 -24
q109 -19 153 -60q19 27 47 43t60 16q17 0 21 -1v-67h-4q-43 -1 -66 -23.5zM1597 729h-68v74h68v-74zM1675 750q0 -46 -32 -74t-81 -28q-47 0 -80.5 28.5t-33.5 73.5h58q0 -31 12 -43.5t44 -12.5q33 0 44 12t11 44h58z" />
    <glyph glyph-name="uni093F0930094D0901.21" 
d="M1494 789.5q-23 -22.5 -23 -62.5q0 -23 8 -57h-58q-13 32 -13 62q0 35 -35 55t-106 30q-152 23 -458 23h-52q-292 0 -434 -23q-91 -16 -131 -51.5t-40 -107.5v-28h86v-67h-86v-563h-76v563h-86v67h86v37q0 97 56 145.5t176 68.5q164 25 481 25q330 0 490 -25
q110 -19 157 -59q19 27 47 43t60 16q17 0 21 -1v-67h-4q-43 -1 -66 -23.5zM1640 729h-68v74h68v-74zM1718 750q0 -46 -32 -74t-81 -28q-47 0 -80.5 28.5t-33.5 73.5h58q0 -31 12 -43.5t44 -12.5q33 0 44 12t11 44h58z" />
    <glyph glyph-name="uni093F0930094D0901.22" 
d="M1537 789.5q-23 -22.5 -23 -62.5q0 -23 8 -57h-58q-13 32 -13 62q0 36 -35.5 55.5t-108.5 28.5q-164 24 -476 24h-53q-133 0 -253 -6t-198 -18q-94 -16 -134.5 -51.5t-40.5 -108.5v-26h86v-67h-86v-563h-76v563h-86v67h86v35q0 98 57 146.5t180 69.5q169 25 497 25
q344 0 509 -25q113 -20 159 -60q19 28 47.5 44t60.5 16q17 0 21 -1v-67h-4q-43 -1 -66 -23.5zM1683 729h-68v74h68v-74zM1761 750q0 -46 -32 -74t-81 -28q-47 0 -80.5 28.5t-33.5 73.5h58q0 -31 12 -43.5t44 -12.5q33 0 44 12t11 44h58z" />
    <glyph glyph-name="uni093F0930094D0901.23" 
d="M1580 789.5q-23 -22.5 -23 -62.5q0 -23 8 -57h-58q-13 32 -13 62q0 35 -36.5 54.5t-110.5 28.5q-168 25 -493 25h-56q-138 0 -262 -6t-205 -18q-96 -16 -137.5 -52.5t-41.5 -109.5v-24h86v-67h-86v-563h-76v563h-86v67h86v34q0 99 58 147.5t183 68.5q171 26 515 26
q357 0 527 -26q114 -19 162 -60q18 28 46.5 44.5t61.5 16.5q17 0 21 -1v-67h-4q-43 -1 -66 -23.5zM1726 729h-68v74h68v-74zM1804 750q0 -46 -32 -74t-81 -28q-47 0 -80.5 28.5t-33.5 73.5h58q0 -31 12 -43.5t44 -12.5q33 0 44 12t11 44h58z" />
    <glyph glyph-name="uni093F0930094D0901.24" 
d="M1623 789.5q-23 -22.5 -23 -62.5q0 -23 8 -57h-58q-13 32 -13 62q0 35 -37 54t-113 28q-171 26 -511 26h-57q-321 0 -484 -25q-98 -16 -140.5 -52.5t-42.5 -110.5v-22h86v-67h-86v-563h-76v563h-86v67h86v32q0 99 59 148t187 70q187 26 531 26q373 0 546 -27
q116 -19 164 -59q19 28 48 44.5t61 16.5q17 0 21 -1v-67h-4q-43 -1 -66 -23.5zM1769 729h-68v74h68v-74zM1847 750q0 -46 -32 -74t-81 -28q-47 0 -80.5 28.5t-33.5 73.5h58q0 -31 12 -43.5t44 -12.5q33 0 44 12t11 44h58z" />
    <glyph glyph-name="uni093F0930094D0901.25" 
d="M1666 789.5q-23 -22.5 -23 -62.5q0 -23 8 -57h-58q-13 32 -13 62q0 34 -37.5 53t-115.5 29q-177 26 -529 26h-58q-336 0 -500 -26q-101 -16 -144.5 -52.5t-43.5 -111.5v-20h86v-67h-86v-563h-76v563h-86v67h86v30q0 68 27 111.5t81.5 68.5t141.5 39q189 27 549 27
q388 0 563 -28q120 -19 168 -59q18 28 47 45t62 17q17 0 21 -1v-67h-4q-43 -1 -66 -23.5zM1812 729h-68v74h68v-74zM1890 750q0 -46 -32 -74t-81 -28q-47 0 -80.5 28.5t-33.5 73.5h58q0 -31 12 -43.5t44 -12.5q33 0 44 12t11 44h58z" />
    <glyph glyph-name="uni093F0930094D0901.26" 
d="M1708 789.5q-23 -22.5 -23 -62.5q0 -23 8 -57h-58q-13 32 -13 63v6q-3 31 -41 47.5t-114 26.5q-181 27 -547 27h-60q-346 0 -516 -26q-103 -17 -147.5 -53.5t-44.5 -111.5v-19h86v-67h-86v-563h-76v563h-86v67h86v28q0 69 28 112.5t83 68.5t144 39q190 28 566 28
q400 0 581 -28q120 -20 170 -59q18 28 47 45t62 17q17 0 21 -1v-67h-4q-43 -1 -66 -23.5zM1854 729h-68v74h68v-74zM1932 750q0 -46 -32 -74t-81 -28q-47 0 -80.5 28.5t-33.5 73.5h58q0 -31 12 -43.5t44 -12.5q33 0 44 12t11 44h58z" />
    <glyph glyph-name="uni093F0930094D0901.27" 
d="M1751 789.5q-23 -22.5 -23 -62.5q0 -23 8 -57h-58q-13 32 -13 63v5q-3 31 -42 48t-117 26q-183 28 -564 28h-61q-359 0 -533 -27q-106 -17 -151 -53.5t-45 -112.5v-17h86v-67h-86v-563h-76v563h-86v67h86v26q0 70 28 113.5t84 68.5t147 40q196 28 583 28q407 0 600 -29
q122 -20 172 -59q19 29 48 46t62 17q17 0 21 -1v-67h-4q-43 -1 -66 -23.5zM1897 729h-68v74h68v-74zM1975 750q0 -46 -32 -74t-81 -28q-47 0 -80.5 28.5t-33.5 73.5h58q0 -31 12 -43.5t44 -12.5q33 0 44 12t11 44h58z" />
    <glyph glyph-name="uni093F0930094D0901.28" 
d="M1794 789.5q-23 -22.5 -23 -62.5q0 -23 8 -57h-58q-13 32 -13 63v4q-2 32 -41.5 48.5t-120.5 25.5q-195 29 -582 29h-62q-163 0 -309 -7t-241 -21q-108 -17 -154 -53.5t-46 -113.5v-15h86v-67h-86v-563h-76v563h-86v67h86v24q0 70 28.5 114.5t85.5 69.5t150 39
q208 29 600 29q422 0 618 -30q124 -18 175 -59q18 29 47.5 46.5t62.5 17.5q17 0 21 -1v-67h-4q-43 -1 -66 -23.5zM1940 729h-68v74h68v-74zM2018 750q0 -46 -32 -74t-81 -28q-47 0 -80.5 28.5t-33.5 73.5h58q0 -31 12 -43.5t44 -12.5q33 0 44 12t11 44h58z" />
    <glyph glyph-name="uni093F0930094D0901.29" 
d="M1837 789.5q-23 -22.5 -23 -62.5q0 -23 8 -57h-58q-13 32 -13 63v3q-1 32 -41.5 48.5t-123.5 26.5q-202 29 -600 29h-64q-168 0 -318 -7t-247 -21q-74 -12 -118.5 -31.5t-65.5 -52t-21 -85.5v-13h86v-67h-86v-563h-76v563h-86v67h86v22q0 71 29 115.5t87 69.5t152 40
q214 29 617 29q434 0 636 -30q127 -20 178 -60q19 30 48 47.5t63 17.5q17 0 21 -1v-67h-4q-43 -1 -66 -23.5zM1983 729h-68v74h68v-74zM2061 750q0 -46 -32 -74t-81 -28q-47 0 -80.5 28.5t-33.5 73.5h58q0 -31 12 -43.5t44 -12.5q33 0 44 12t11 44h58z" />
    <glyph glyph-name="uni093F0930094D0901.30" 
d="M1880 789.5q-23 -22.5 -23 -62.5q0 -23 8 -57h-58q-13 32 -13 63q0 33 -40.5 50t-127.5 27q-205 30 -618 30h-65q-174 0 -328.5 -7t-253.5 -22q-76 -12 -121 -31.5t-66.5 -52.5t-21.5 -86v-11h86v-67h-86v-563h-76v563h-86v67h86v20q0 72 29.5 116.5t88.5 69.5t155 40
q215 30 634 30q449 0 654 -31q129 -20 181 -59q18 30 47.5 47.5t63.5 17.5q17 0 21 -1v-67h-4q-43 -1 -66 -23.5zM2026 729h-68v74h68v-74zM2104 750q0 -46 -32 -74t-81 -28q-47 0 -80.5 28.5t-33.5 73.5h58q0 -31 12 -43.5t44 -12.5q33 0 44 12t11 44h58z" />
    <glyph glyph-name="uni093F0930094D0902.01" 
d="M636 771.5q-23 -19.5 -23 -54.5q0 -21 8 -47h-58q-11 30 -13 59q0 81 -80 102q-37 8 -102 8h-24q-71 0 -107 -9q-44 -11 -64.5 -43.5t-20.5 -90.5v-66h86v-67h-86v-563h-76v563h-86v67h86v76q0 152 141 187q52 13 140 13q75 0 128 -11q73 -16 107 -67q38 32 93 32
q17 0 21 -1v-67h-4q-43 -1 -66 -20.5zM739 754v-84h-77v84h77z" />
    <glyph glyph-name="uni093F0930094D0902.02" 
d="M679 771.5q-23 -19.5 -23 -54.5q0 -21 8 -47h-58q-11 30 -13 59q0 80 -83 101q-41 9 -120 9h-25q-84 0 -124 -10q-46 -11 -67.5 -43.5t-21.5 -91.5v-64h86v-67h-86v-563h-76v563h-86v67h86v74q0 153 146 188q55 14 157 14q89 0 146 -12q77 -17 109 -67q38 33 94 33
q17 0 21 -1v-67h-4q-43 -1 -66 -20.5zM782 754v-84h-77v84h77z" />
    <glyph glyph-name="uni093F0930094D0902.03" 
d="M679 771.5q-23 -19.5 -23 -54.5q0 -21 8 -47h-58q-11 30 -13 59q0 80 -83 101q-41 9 -120 9h-25q-84 0 -124 -10q-46 -11 -67.5 -43.5t-21.5 -91.5v-64h86v-67h-86v-563h-76v563h-86v67h86v74q0 153 146 188q55 14 157 14q89 0 146 -12q77 -17 109 -67q38 33 94 33
q17 0 21 -1v-67h-4q-43 -1 -66 -20.5zM782 754v-84h-77v84h77z" />
    <glyph glyph-name="uni093F0930094D0902.04" 
d="M765 771.5q-23 -19.5 -23 -54.5q0 -21 8 -47h-58q-13 34 -13 59q0 79 -89 100q-59 10 -156 10h-28q-102 0 -156 -11q-51 -12 -74.5 -45t-23.5 -93v-60h86v-67h-86v-563h-76v563h-86v67h86v70q0 157 155 191q69 15 191 15q116 0 182 -13q81 -18 115 -67q37 34 95 34
q17 0 21 -1v-67h-4q-43 -1 -66 -20.5zM868 754v-84h-77v84h77z" />
    <glyph glyph-name="uni093F0930094D0902.05" 
d="M808 771.5q-23 -19.5 -23 -54.5q0 -21 8 -47h-58q-13 34 -13 60q0 77 -93 98q-60 11 -173 11h-29q-114 0 -173 -12q-53 -12 -77.5 -45t-24.5 -94v-58h86v-67h-86v-563h-76v563h-86v67h86v68q0 82 40 128.5t119 64.5q75 15 208 15q123 0 201 -14q84 -18 118 -66
q39 34 95 34q17 0 21 -1v-67h-4q-43 -1 -66 -20.5zM911 754v-84h-77v84h77z" />
    <glyph glyph-name="uni093F0930094D0902.06" 
d="M850 771.5q-23 -19.5 -23 -54.5q0 -21 8 -47h-58q-13 32 -13 63v6q-6 69 -95 88q-65 12 -191 12h-31q-125 0 -189 -12q-55 -13 -80.5 -45.5t-25.5 -94.5v-57h86v-67h-86v-563h-76v563h-86v67h86v66q0 83 41.5 129.5t122.5 64.5q77 16 225 16q133 0 219 -14
q84 -18 120 -66q39 34 95 34q17 0 21 -1v-67h-4q-43 -1 -66 -20.5zM953 754v-84h-77v84h77z" />
    <glyph glyph-name="uni093F0930094D0902.07" 
d="M893 771.5q-23 -19.5 -23 -54.5q0 -21 8 -47h-58q-13 32 -13 63v5q-4 70 -98 89q-71 12 -209 12h-32q-139 0 -205 -13q-58 -13 -84.5 -46t-26.5 -95v-55h86v-67h-86v-563h-76v563h-86v67h86v64q0 84 42 130.5t126 64.5q81 17 243 17q149 0 236 -15q87 -18 123 -66
q38 35 96 35q17 0 21 -1v-67h-4q-43 -1 -66 -20.5zM996 754v-84h-77v84h77z" />
    <glyph glyph-name="uni093F0930094D0902.08" 
d="M936 771.5q-23 -19.5 -23 -54.5q0 -21 8 -47h-58q-13 32 -13 63v4q-4 70 -101 89q-74 13 -227 13h-33q-152 0 -222 -14q-60 -13 -87.5 -46t-27.5 -96v-53h86v-67h-86v-563h-76v563h-86v67h86v62q0 85 43 131.5t130 65.5q93 17 259 17q165 0 255 -16q88 -18 126 -65
q38 35 96 35q17 0 21 -1v-67h-4q-43 -1 -66 -20.5zM1039 754v-84h-77v84h77z" />
    <glyph glyph-name="uni093F0930094D0902.09" 
d="M979 771.5q-23 -19.5 -23 -54.5q0 -21 8 -47h-58q-13 32 -13 63v3q-4 70 -104 89q-79 14 -244 14h-36q-163 0 -238 -14q-62 -13 -90.5 -46.5t-28.5 -97.5v-51h86v-67h-86v-563h-76v563h-86v67h86v61q0 86 44 132.5t133 64.5q96 18 277 18q178 0 273 -17q90 -18 128 -65
q38 36 97 36q17 0 21 -1v-67h-4q-43 -1 -66 -20.5zM1082 754v-84h-77v84h77z" />
    <glyph glyph-name="uni093F0930094D0902.10" 
d="M1022 771.5q-23 -19.5 -23 -54.5q0 -21 8 -47h-58q-13 32 -13 63v1q-1 37 -28.5 59t-78.5 31q-90 15 -262 15h-37q-169 0 -255 -15q-65 -13 -94 -46.5t-29 -98.5v-49h86v-67h-86v-563h-76v563h-86v67h86v59q0 86 45.5 133t136.5 66q101 18 293 18q191 0 292 -17
q93 -20 130 -65q39 36 98 36q17 0 21 -1v-67h-4q-43 -1 -66 -20.5zM1125 754v-84h-77v84h77z" />
    <glyph glyph-name="uni093F0930094D0902.11" 
d="M1065 771.5q-23 -19.5 -23 -54.5q0 -21 8 -47h-58q-13 30 -13 60q0 39 -28 61.5t-82 32.5q-95 15 -280 15h-38q-183 0 -271 -16q-67 -13 -97.5 -47t-30.5 -99v-47h86v-67h-86v-563h-76v563h-86v67h86v57q0 87 46.5 134t140.5 66q102 19 310 19q207 0 309 -18
q96 -18 134 -65q18 17 43.5 27t54.5 10q17 0 21 -1v-67h-4q-43 -1 -66 -20.5zM1168 754v-84h-77v84h77z" />
    <glyph glyph-name="uni093F0930094D0902.12" 
d="M1108 771.5q-23 -19.5 -23 -54.5q0 -21 8 -47h-58q-13 30 -13 61q0 38 -29 60t-85 32q-99 16 -297 16h-40q-192 0 -287 -16q-69 -14 -100.5 -48t-31.5 -100v-45h86v-67h-86v-563h-76v563h-86v67h86v55q0 88 47 135.5t144 66.5q117 19 327 19q213 0 328 -19
q98 -18 136 -65q40 38 99 38q17 0 21 -1v-67h-4q-43 -1 -66 -20.5zM1211 754v-84h-77v84h77z" />
    <glyph glyph-name="uni093F0930094D0902.13" 
d="M1151 771.5q-23 -19.5 -23 -54.5q0 -21 8 -47h-58q-13 30 -13 61q0 38 -29.5 60t-87.5 31q-102 17 -315 17h-41q-206 0 -304 -17q-72 -14 -104 -48t-32 -101v-43h86v-67h-86v-563h-76v563h-86v67h86v53q0 89 48.5 136.5t147.5 66.5q118 20 344 20q225 0 346 -19
q99 -19 139 -65q18 18 43.5 28t55.5 10q17 0 21 -1v-67h-4q-43 -1 -66 -20.5zM1254 754v-84h-77v84h77z" />
    <glyph glyph-name="uni093F0930094D0902.14" 
d="M1194 771.5q-23 -19.5 -23 -54.5q0 -21 8 -47h-58q-13 30 -13 61q0 38 -30.5 59.5t-89.5 31.5q-107 17 -333 17h-42q-220 0 -320 -18q-75 -14 -108 -48.5t-33 -101.5v-41h86v-67h-86v-563h-76v563h-86v67h86v51q0 90 49 137.5t151 66.5q122 21 362 21t363 -20
q104 -19 142 -65q39 39 100 39q17 0 21 -1v-67h-4q-43 -1 -66 -20.5zM1297 754v-84h-77v84h77z" />
    <glyph glyph-name="uni093F0930094D0902.15" 
d="M1237 771.5q-23 -19.5 -23 -54.5q0 -21 8 -47h-58q-13 30 -13 61q0 38 -31 59t-92 31q-112 18 -351 18h-44q-231 0 -336 -18q-77 -14 -111 -49t-34 -103v-39h86v-67h-86v-563h-76v563h-86v67h86v49q0 91 50 139t155 67q126 21 378 21q255 0 382 -21q105 -19 145 -64
q37 39 100 39q17 0 21 -1v-67h-4q-43 -1 -66 -20.5zM1340 754v-84h-77v84h77z" />
    <glyph glyph-name="uni093F0930094D0902.16" 
d="M1279 771.5q-23 -19.5 -23 -54.5q0 -21 8 -47h-58q-13 32 -13 63v6q-3 33 -34.5 52.5t-90.5 28.5q-130 20 -369 20h-45q-230 0 -353 -20q-79 -15 -114 -49.5t-35 -102.5v-38h86v-67h-86v-563h-76v563h-86v67h86v47q0 92 51 140t158 67q138 22 396 22q267 0 400 -21
q103 -19 147 -64q18 18 44 28.5t56 10.5q17 0 21 -1v-67h-4q-43 -1 -66 -20.5zM1382 754v-84h-77v84h77z" />
    <glyph glyph-name="uni093F0930094D0902.17" 
d="M1322 771.5q-23 -19.5 -23 -54.5q0 -21 8 -47h-58q-13 32 -13 63v5q-3 34 -35 53t-93 28q-134 21 -387 21h-47q-240 0 -369 -20q-81 -15 -117 -50t-36 -104v-36h86v-67h-86v-563h-76v563h-86v67h86v45q0 93 52 141t162 68q143 22 412 22q282 0 419 -22q107 -19 149 -64
q18 19 44.5 29.5t56.5 10.5q17 0 21 -1v-67h-4q-43 -1 -66 -20.5zM1425 754v-84h-77v84h77z" />
    <glyph glyph-name="uni093F0930094D0902.18" 
d="M1365 771.5q-23 -19.5 -23 -54.5q0 -21 8 -47h-58q-13 32 -13 63v4q-2 34 -35 53.5t-96 28.5q-140 21 -405 21h-48q-255 0 -385 -21q-84 -15 -121 -50t-37 -105v-34h86v-67h-86v-563h-76v563h-86v67h86v43q0 94 53 142.5t165 67.5q146 23 430 23q297 0 436 -23
q111 -19 152 -63q19 19 45.5 29.5t56.5 10.5q17 0 21 -1v-67h-4q-43 -1 -66 -20.5zM1468 754v-84h-77v84h77z" />
    <glyph glyph-name="uni093F0930094D0902.19" 
d="M1408 771.5q-23 -19.5 -23 -54.5q0 -21 8 -47h-58q-13 32 -13 63v3q-2 34 -35.5 53.5t-98.5 28.5q-143 22 -423 22h-49q-269 0 -402 -22q-87 -15 -124.5 -50t-37.5 -106v-32h86v-67h-86v-563h-76v563h-86v67h86v41q0 95 54 143.5t169 67.5q147 24 447 24q309 0 454 -23
q113 -21 155 -64q18 20 44.5 30.5t57.5 10.5q17 0 21 -1v-67h-4q-43 -1 -66 -20.5zM1511 754v-84h-77v84h77z" />
    <glyph glyph-name="uni093F0930094D0902.20" 
d="M1451 771.5q-23 -19.5 -23 -54.5q0 -21 8 -47h-58q-13 32 -13 63v1q-1 35 -35.5 54.5t-102.5 28.5q-146 23 -440 23h-51q-278 0 -418 -22q-88 -16 -127 -51.5t-39 -106.5v-30h86v-67h-86v-563h-76v563h-86v67h86v39q0 96 55 144.5t172 68.5q163 24 464 24q315 0 473 -24
q115 -21 157 -64q39 42 103 42q17 0 21 -1v-67h-4q-43 -1 -66 -20.5zM1554 754v-84h-77v84h77z" />
    <glyph glyph-name="uni093F0930094D0902.21" 
d="M1494 771.5q-23 -19.5 -23 -54.5q0 -21 8 -47h-58q-13 32 -13 62q0 35 -35 55t-106 30q-152 23 -458 23h-52q-292 0 -434 -23q-91 -16 -131 -51.5t-40 -107.5v-28h86v-67h-86v-563h-76v563h-86v67h86v37q0 97 56 145.5t176 68.5q164 25 481 25q330 0 490 -25
q115 -18 161 -63q18 20 45 31t58 11q17 0 21 -1v-67h-4q-43 -1 -66 -20.5zM1597 754v-84h-77v84h77z" />
    <glyph glyph-name="uni093F0930094D0902.22" 
d="M1537 771.5q-23 -19.5 -23 -54.5q0 -21 8 -47h-58q-13 32 -13 62q0 36 -35.5 55.5t-108.5 28.5q-164 24 -476 24h-53q-133 0 -253 -6t-198 -18q-94 -16 -134.5 -51.5t-40.5 -108.5v-26h86v-67h-86v-563h-76v563h-86v67h86v35q0 98 57 146.5t180 69.5q169 25 497 25
q344 0 509 -25q117 -20 163 -64q40 43 104 43q17 0 21 -1v-67h-4q-43 -1 -66 -20.5zM1640 754v-84h-77v84h77z" />
    <glyph glyph-name="uni093F0930094D0902.23" 
d="M1580 771.5q-23 -19.5 -23 -54.5q0 -21 8 -47h-58q-13 32 -13 62q0 35 -36.5 54.5t-110.5 28.5q-168 25 -493 25h-56q-138 0 -262 -6t-205 -18q-96 -16 -137.5 -52.5t-41.5 -109.5v-24h86v-67h-86v-563h-76v563h-86v67h86v34q0 99 58 147.5t183 68.5q171 26 515 26
q357 0 527 -26q120 -20 166 -63q18 20 45 31.5t59 11.5q17 0 21 -1v-67h-4q-43 -1 -66 -20.5zM1683 754v-84h-77v84h77z" />
    <glyph glyph-name="uni093F0930094D0902.24" 
d="M1623 771.5q-23 -19.5 -23 -54.5q0 -21 8 -47h-58q-13 32 -13 62q0 35 -37 54t-113 28q-171 26 -511 26h-57q-321 0 -484 -25q-98 -16 -140.5 -52.5t-42.5 -110.5v-22h86v-67h-86v-563h-76v563h-86v67h86v32q0 99 59 148t187 70q187 26 531 26q373 0 546 -27
q122 -20 168 -63q19 21 46 32.5t59 11.5q17 0 21 -1v-67h-4q-43 -1 -66 -20.5zM1726 754v-84h-77v84h77z" />
    <glyph glyph-name="uni093F0930094D0902.25" 
d="M1666 771.5q-23 -19.5 -23 -54.5q0 -21 8 -47h-58q-13 32 -13 62q0 34 -37.5 53t-115.5 29q-177 26 -529 26h-58q-336 0 -500 -26q-101 -16 -144.5 -52.5t-43.5 -111.5v-20h86v-67h-86v-563h-76v563h-86v67h86v30q0 68 27 111.5t81.5 68.5t141.5 39q189 27 549 27
q388 0 563 -28q124 -20 172 -63q18 21 45 33t60 12q17 0 21 -1v-67h-4q-43 -1 -66 -20.5zM1769 754v-84h-77v84h77z" />
    <glyph glyph-name="uni093F0930094D0902.26" 
d="M1708 771.5q-23 -19.5 -23 -54.5q0 -21 8 -47h-58q-13 32 -13 63v5q-3 32 -41 48.5t-114 26.5q-181 27 -547 27h-60q-346 0 -516 -26q-103 -17 -147.5 -53.5t-44.5 -111.5v-19h86v-67h-86v-563h-76v563h-86v67h86v28q0 69 28 112.5t83 68.5t144 39q190 28 566 28
q400 0 581 -28q124 -20 174 -63q18 21 45 33t60 12q17 0 21 -1v-67h-4q-43 -1 -66 -20.5zM1811 754v-84h-77v84h77z" />
    <glyph glyph-name="uni093F0930094D0902.27" 
d="M1751 771.5q-23 -19.5 -23 -54.5q0 -21 8 -47h-58q-13 32 -13 63v5q-3 31 -42 48t-117 26q-183 28 -564 28h-61q-359 0 -533 -27q-106 -17 -151 -53.5t-45 -112.5v-17h86v-67h-86v-563h-76v563h-86v67h86v26q0 70 28 113.5t84 68.5t147 40q196 28 583 28q407 0 600 -29
q128 -20 176 -62q18 21 45.5 33t60.5 12q17 0 21 -1v-67h-4q-43 -1 -66 -20.5zM1854 754v-84h-77v84h77z" />
    <glyph glyph-name="uni093F0930094D0902.28" 
d="M1794 771.5q-23 -19.5 -23 -54.5q0 -21 8 -47h-58q-13 32 -13 63v4q-2 32 -41.5 48.5t-120.5 25.5q-195 29 -582 29h-62q-163 0 -309 -7t-241 -21q-108 -17 -154 -53.5t-46 -113.5v-15h86v-67h-86v-563h-76v563h-86v67h86v24q0 70 28.5 114.5t85.5 69.5t150 39
q208 29 600 29q422 0 618 -30q130 -20 178 -62q19 22 46.5 34t60.5 12q17 0 21 -1v-67h-4q-43 -1 -66 -20.5zM1897 754v-84h-77v84h77z" />
    <glyph glyph-name="uni093F0930094D0902.29" 
d="M1837 771.5q-23 -19.5 -23 -54.5q0 -21 8 -47h-58q-13 32 -13 63v3q-1 32 -41.5 48.5t-123.5 26.5q-202 29 -600 29h-64q-168 0 -318 -7t-247 -21q-74 -12 -118.5 -31.5t-65.5 -52t-21 -85.5v-13h86v-67h-86v-563h-76v563h-86v67h86v22q0 71 29 115.5t87 69.5t152 40
q214 29 617 29q434 0 636 -30q133 -21 182 -63q18 23 45.5 35t61.5 12q17 0 21 -1v-67h-4q-43 -1 -66 -20.5zM1940 754v-84h-77v84h77z" />
    <glyph glyph-name="uni093F0930094D0902.30" 
d="M1880 771.5q-23 -19.5 -23 -54.5q0 -21 8 -47h-58q-13 32 -13 63q0 33 -40.5 50t-127.5 27q-205 30 -618 30h-65q-174 0 -328.5 -7t-253.5 -22q-76 -12 -121 -31.5t-66.5 -52.5t-21.5 -86v-11h86v-67h-86v-563h-76v563h-86v67h86v20q0 72 29.5 116.5t88.5 69.5t155 40
q215 30 634 30q449 0 654 -31q134 -21 184 -62q19 22 47 34.5t61 12.5q17 0 21 -1v-67h-4q-43 -1 -66 -20.5zM1983 754v-84h-77v84h77z" />
    <glyph glyph-name="uni0915" unicode="&#x915;" horiz-adv-x="638" 
d="M350 432h3q16 21 42.5 34t61.5 13q67 0 105.5 -48.5t38.5 -135.5q0 -89 -40.5 -138.5t-111.5 -49.5q-9 0 -25 2v66h12q44 0 65 25t21 82v23q0 57 -20.5 82.5t-63.5 25.5q-45 0 -66.5 -26.5t-21.5 -81.5v-305h-76v156h-4q-36 -49 -105 -49q-65 0 -104 46.5t-39 140.5
q0 93 39.5 139t105.5 46q70 0 103 -47h4v131h-284v67h658v-67h-298v-131zM274 282v23q0 108 -87 108q-44 0 -65 -25.5t-21 -82.5v-23q0 -57 21 -82t65 -25q87 0 87 107z" />
    <glyph glyph-name="uni0916" unicode="&#x916;" horiz-adv-x="678" 
d="M688 563h-86v-563h-76v93q-27 -28 -77 -42t-112 -14q-144 0 -227 76.5t-83 223.5h51q45 0 69 27.5t24 80.5v118h-181v67h698v-67zM526 563h-281v-111q0 -82 -34.5 -126.5t-100.5 -48.5q17 -90 76 -132.5t154 -42.5q166 0 186 104h-3q-15 -17 -38 -28t-53 -11
q-60 0 -96 40t-36 122q0 80 36 119.5t96 39.5q58 0 91 -38h3v113zM526 337q0 84 -74 84q-36 0 -54.5 -20t-18.5 -64v-18q0 -44 18.5 -64t54.5 -20q74 0 74 84v18z" />
    <glyph glyph-name="uni0917" unicode="&#x917;" horiz-adv-x="564" 
d="M574 563h-86v-563h-76v563h-136v-288q0 -59 -35 -94.5t-94 -35.5q-54 0 -91 37.5t-37 92.5q0 59 34.5 94.5t93.5 35.5h54v158h-211v67h584v-67zM186.5 229q14.5 17 14.5 46v61h-54q-25 0 -39 -16.5t-14 -44.5q0 -27 14.5 -45t38.5 -18q25 0 39.5 17z" />
    <glyph glyph-name="uni0918" unicode="&#x918;" horiz-adv-x="484" 
d="M494 563h-86v-563h-76v154q-42 -47 -123 -47q-74 0 -119.5 38.5t-45.5 106.5q0 44 21.5 74.5t57.5 44.5q-37 17 -57.5 43t-20.5 72q0 49 21 77h-76v67h504v-67zM303.5 204.5q28.5 32.5 28.5 100.5v258h-178q-32 0 -32 -66q0 -49 23.5 -74t60.5 -25h44v-63h-43
q-37 0 -61 -18.5t-24 -59.5q0 -85 97 -85q56 0 84.5 32.5z" />
    <glyph glyph-name="uni0919" unicode="&#x919;" horiz-adv-x="476" 
d="M487 563h-137v-157h-147q-32 0 -52 -15t-20 -44q0 -24 15.5 -37.5t43.5 -13.5h39q70 0 110 -37.5t40 -103.5q0 -72 -46 -109t-124 -37q-86 0 -129.5 41.5t-43.5 101.5q0 12 1 20h79v-10q0 -43 26 -64.5t68 -21.5q40 0 65 20t25 60q0 35 -20 53.5t-56 18.5h-31
q-141 0 -141 119q0 65 41.5 95t113.5 30h68v91h-285v67h497v-67zM380 403h82v-89h-82v89z" />
    <glyph glyph-name="uni091A" unicode="&#x91a;" horiz-adv-x="480" 
d="M491 563h-86v-563h-76v145h-3q-16 -17 -42.5 -27.5t-59.5 -10.5q-68 0 -107.5 39t-39.5 119q0 68 32 106h-95v69h246v-69h-18q-44 0 -65 -21t-21 -68v-19q0 -47 21 -68t65 -21q87 0 87 108v281h-339v67h501v-67z" />
    <glyph glyph-name="uni091B" unicode="&#x91b;" horiz-adv-x="536" 
d="M439 563v-91q36 -12 54.5 -51t18.5 -103q0 -76 -33 -136t-92.5 -94t-136.5 -34q-94 0 -150 43.5t-56 118.5q0 49 21.5 86.5t57.5 54.5q-34 8 -56 37.5t-22 88.5q0 51 23 80h-78v67h556v-67h-107zM363 563h-193q-25 0 -36.5 -22.5t-11.5 -56.5q0 -50 19 -75t49 -25h34v-64
h-33q-29 0 -49 -24t-20 -66q0 -56 33.5 -83.5t94.5 -27.5q56 0 99 25t67 68.5t24 96.5v25q0 34 -9.5 57.5t-31.5 23.5q-18 0 -26.5 -13t-8.5 -33v-12h-67q-4 12 -4 31q0 31 19.5 52t50.5 31v92z" />
    <glyph glyph-name="uni091C" unicode="&#x91c;" horiz-adv-x="519" 
d="M529 563h-86v-563h-76v364h-73v-116q0 -68 -36 -104.5t-101 -36.5q-66 0 -101 36t-35 105v185h75v-190q0 -32 16 -49.5t45 -17.5q28 0 44.5 17.5t16.5 49.5v190h149v130h-377v67h539v-67z" />
    <glyph glyph-name="uni091D" unicode="&#x91d;" horiz-adv-x="659" 
d="M669 563h-86v-563h-76v259h-161q33 -30 33 -83q0 -65 -41.5 -100t-108.5 -35q-55 0 -92 24v-102h-75v235h75v-10q0 -41 23.5 -61t59.5 -20t58 19t22 56q0 33 -20 50t-56 17h-31q-68 0 -104.5 29.5t-36.5 79.5q0 60 38.5 87t106.5 27h78v91h-285v67h679v-67zM507 563h-157
v-157h-158q-26 0 -43.5 -12t-17.5 -36q0 -20 15.5 -30.5t43.5 -10.5h317v246z" />
    <glyph glyph-name="uni091E" unicode="&#x91e;" horiz-adv-x="561" 
d="M571 563h-86v-563h-76v248h-108q-5 -82 -41 -121t-107 -39q-56 0 -92 27.5t-36 69.5q0 11 2 21h70v-4q0 -20 15.5 -33t40.5 -13q39 0 56 24t17 73v55q0 49 -17 73t-56 24q-23 0 -37.5 -13t-14.5 -33v-4h-74q-2 10 -2 20q0 43 36 70t92 27q70 0 106 -38t42 -118h108v247
h-419v67h581v-67z" />
    <glyph glyph-name="uni091F" unicode="&#x91f;" horiz-adv-x="408" 
d="M115 280v-34q0 -63 24 -93.5t73 -30.5q45 0 68.5 24t23.5 69v33h77q2 -14 2 -28q0 -84 -44 -125t-125 -41q-89 0 -133.5 50.5t-44.5 157.5q0 210 174 210h44v91h-264v67h428v-67h-89v-157h-119q-95 0 -95 -126z" />
    <glyph glyph-name="uni0920" unicode="&#x920;" horiz-adv-x="436" 
d="M329 563v-118q77 -48 77 -183q0 -208 -187 -208t-187 208q0 210 187 210h35v91h-264v67h456v-67h-117zM327 280q0 92 -48 125h-60q-108 0 -108 -125v-34q0 -124 108 -124t108 124v34z" />
    <glyph glyph-name="uni0921" unicode="&#x921;" horiz-adv-x="422" 
d="M151 391q-20 -15 -20 -44q0 -24 15.5 -37.5t43.5 -13.5h39q70 0 110 -37.5t40 -103.5q0 -72 -46 -109t-124 -37q-86 0 -129.5 41.5t-43.5 101.5q0 12 1 20h79v-10q0 -43 26 -64.5t68 -21.5q40 0 65 20t25 60q0 35 -20 53.5t-56 18.5h-31q-141 0 -141 119q0 65 41.5 95
t113.5 30h68v91h-285v67h443v-67h-83v-157h-147q-32 0 -52 -15z" />
    <glyph glyph-name="uni0978" unicode="&#x978;" horiz-adv-x="458" 
d="M259 421q0 -65 -23 -106q82 -5 122.5 -49.5t40.5 -108.5t-47 -157h-80q48 97 48 153q0 46 -26 70.5t-74 24.5h-159v68h41q40 0 61 25t21 73v149h-194v67h478v-67h-209v-142z" />
    <glyph glyph-name="uni0922" unicode="&#x922;" horiz-adv-x="435" 
d="M138 374.5q-23 -31.5 -23 -95.5v-33q0 -77 44 -107q-12 23 -12 54q0 52 30.5 84t88.5 32t92 -32t34 -85q0 -64 -45 -101t-112 -37q-94 0 -146 56t-52 164q0 198 178 198h48v91h-273v67h455v-67h-107v-157h-123q-54 0 -77 -31.5zM221.5 226.5q-14.5 -15.5 -14.5 -44.5
q0 -30 14.5 -45t41.5 -15q24 0 38.5 18t14.5 47q0 27 -14 41t-40 14t-40.5 -15.5z" />
    <glyph glyph-name="uni0923" unicode="&#x923;" horiz-adv-x="651" 
d="M661 563h-86v-563h-76v563h-135v-305q0 -73 -41.5 -112t-113.5 -39q-74 0 -114 39t-40 112v305h-65v67h671v-67zM288 563h-158v-309q0 -37 21 -57.5t58 -20.5q36 0 57.5 20.5t21.5 57.5v309z" />
    <glyph glyph-name="uni0924" unicode="&#x924;" horiz-adv-x="477" 
d="M488 563h-86v-563h-76v353h-138q-44 0 -61 -20t-17 -61q0 -96 96 -272h-82q-56 106 -74.5 169.5t-18.5 106.5q0 71 41 108t121 37h133v142h-336v67h498v-67z" />
    <glyph glyph-name="uni0925" unicode="&#x925;" horiz-adv-x="547" 
d="M557 563h-86v-563h-76v193q-20 -24 -54 -36t-76 -12q-86 0 -136 50t-50 142q77 0 116.5 38.5t39.5 102.5q0 40 -15 68t-46 28q-27 0 -40 -19t-13 -47v-26h-72q-4 12 -4 38q0 58 35.5 90t91.5 32q65 0 102.5 -43.5t37.5 -114.5q0 -76 -41.5 -130t-105.5 -71
q22 -74 106 -74q58 0 91 32.5t33 99.5v222h-75v67h237v-67z" />
    <glyph glyph-name="uni0926" unicode="&#x926;" horiz-adv-x="422" 
d="M115 280v-34q0 -63 26.5 -93.5t81.5 -30.5q54 0 80 29l-16 66h75l52 -217h-75l-19 79q-41 -25 -106 -25q-83 0 -130.5 51.5t-47.5 156.5q0 210 174 210h53v91h-273v67h443v-67h-95v-157h-128q-95 0 -95 -126z" />
    <glyph glyph-name="uni0927" unicode="&#x927;" horiz-adv-x="504" 
d="M515 563h-87v-563h-75v156q-46 -49 -134 -49q-79 0 -127 39t-48 109q0 45 21.5 76.5t57.5 46.5q-37 19 -57.5 49.5t-20.5 83.5q0 61 29.5 96t76.5 35q48 0 78 -24.5t30 -68.5q0 -18 -4 -30h-67v20q0 39 -33 39t-33 -72q0 -50 23.5 -75.5t60.5 -25.5h49v-64h-48
q-37 0 -61 -19t-24 -62q0 -46 28.5 -67t78.5 -21q61 0 92.5 32.5t31.5 100.5v258h-63v67h225v-67z" />
    <glyph glyph-name="uni0928" unicode="&#x928;" horiz-adv-x="506" 
d="M517 563h-86v-563h-76v335h-105v-52q0 -55 -34 -88.5t-90 -33.5q-52 0 -88.5 35.5t-36.5 86.5q0 55 34.5 88t90.5 33h229v159h-365v67h527v-67zM175 335h-49q-22 0 -36 -14.5t-14 -37.5q0 -22 15 -37.5t35 -15.5q22 0 35.5 14.5t13.5 38.5v52z" />
    <glyph glyph-name="uni0929" unicode="&#x929;" horiz-adv-x="506" 
d="M0 0zM517 563h-86v-563h-76v335h-105v-52q0 -55 -34 -88.5t-90 -33.5q-52 0 -88.5 35.5t-36.5 86.5q0 55 34.5 88t90.5 33h229v159h-365v67h527v-67zM175 335h-49q-22 0 -36 -14.5t-14 -37.5q0 -22 15 -37.5t35 -15.5q22 0 35.5 14.5t13.5 38.5v52zM171 108zM80 108h91
v-99h-91v99z" />
    <glyph glyph-name="uni092A" unicode="&#x92a;" horiz-adv-x="440" 
d="M450 563h-86v-563h-76v180q-37 -35 -98 -35q-64 0 -99.5 39t-35.5 111v268h-65v67h460v-67zM262.5 229.5q21.5 16.5 25.5 46.5v287h-157v-262q0 -42 20.5 -65t58.5 -23q31 0 52.5 16.5z" />
    <glyph glyph-name="uni092B" unicode="&#x92b;" horiz-adv-x="652" 
d="M364 432h3q16 21 42.5 34t61.5 13q67 0 105.5 -48.5t38.5 -135.5q0 -89 -40.5 -138.5t-111.5 -49.5q-9 0 -25 2v66h12q44 0 65 25t21 82v23q0 57 -20.5 82.5t-63.5 25.5q-45 0 -66.5 -26.5t-21.5 -81.5v-305h-76v180q-37 -35 -98 -35q-64 0 -99.5 39t-35.5 111v268h-65
v67h672v-67h-298v-131zM131 563v-262q0 -42 20.5 -65t58.5 -23q31 0 52.5 16.5t25.5 46.5v287h-157z" />
    <glyph glyph-name="uni092C" unicode="&#x92c;" horiz-adv-x="454" 
d="M465 563h-86v-563h-76v146h-3q-18 -17 -47 -28t-66 -11q-72 0 -114.5 46.5t-42.5 140.5t42 139.5t115 45.5q74 0 113 -37h3v121h-313v67h475v-67zM303 282v23q0 108 -97 108q-21 0 -34 -4l110 -203q21 26 21 76zM132.5 200q23.5 -25 73.5 -25q23 0 39 6l-112 207
q-24 -27 -24 -83v-23q0 -57 23.5 -82z" />
    <glyph glyph-name="uni092D" unicode="&#x92d;" horiz-adv-x="589" 
d="M599 563h-87v-563h-75v269h-140v-52q0 -54 -33.5 -87.5t-89.5 -33.5q-52 0 -88.5 35.5t-36.5 85.5q0 54 34.5 87t90.5 33h49v173q0 64 -52 64q-26 0 -38.5 -19.5t-12.5 -46.5v-31h-72q-4 18 -4 40q0 59 37 92t95 33q59 0 90 -32.5t31 -90.5v-182h140v226h-91v67h253v-67z
M223 269h-49q-22 0 -36 -14t-14 -38q0 -22 15 -38t35 -16q22 0 35.5 15t13.5 39v52z" />
    <glyph glyph-name="uni092E" unicode="&#x92e;" horiz-adv-x="551" 
d="M561 563h-86v-563h-76v269h-146v-52q0 -54 -34.5 -87.5t-89.5 -33.5q-52 0 -88.5 35.5t-36.5 85.5q0 54 34 87t91 33h49v226h-188v67h571v-67zM399 337v226h-146v-226h146zM178 269h-49q-23 0 -36.5 -14t-13.5 -38q0 -23 14.5 -38.5t35.5 -15.5q22 0 35.5 15t13.5 39v52z
" />
    <glyph glyph-name="uni092F" unicode="&#x92f;" horiz-adv-x="491" 
d="M501 563h-86v-563h-76v186q-20 -21 -51 -31t-66 -10q-87 0 -136 59t-49 169q57 0 88 25.5t31 66.5q0 40 -24.5 69t-58.5 29h-83v67h511v-67zM310.5 241.5q28.5 32.5 28.5 99.5v222h-150q21 -17 33 -44.5t12 -57.5q0 -53 -30.5 -90t-82.5 -53q20 -109 112 -109
q49 0 77.5 32.5z" />
    <glyph glyph-name="uni0930" unicode="&#x930;" horiz-adv-x="333" 
d="M343 563h-84v-142q0 -78 -35.5 -120t-103.5 -45l126 -256h-81l-124 268v48h51q45 0 68.5 25t23.5 73v149h-194v67h353v-67z" />
    <glyph glyph-name="uni0931" unicode="&#x931;" horiz-adv-x="333" 
d="M0 0zM343 563h-84v-142q0 -78 -35.5 -120t-103.5 -45l126 -256h-81l-124 268v48h51q45 0 68.5 25t23.5 73v149h-194v67h353v-67zM72 99zM-19 99h91v-99h-91v99z" />
    <glyph glyph-name="uni0932" unicode="&#x932;" horiz-adv-x="634" 
d="M645 563h-86v-563h-76v278q0 107 -76 107q-38 0 -55 -32t-17 -83v-70h-78v70q0 51 -17 83t-56 32q-76 0 -76 -144q0 -91 40 -132.5t129 -41.5h16v-63q-15 -4 -35 -4q-112 0 -170 61.5t-58 191.5q0 90 38.5 144t105.5 54q47 0 77 -25t43 -68h3q28 93 116 93q40 0 70 -24
v136h-493v67h655v-67z" />
    <glyph glyph-name="uni0933" unicode="&#x933;" horiz-adv-x="658" 
d="M523 563v-100q51 -19 79.5 -70.5t28.5 -125.5q0 -59 -19 -107.5t-55.5 -77t-87.5 -28.5q-96 0 -133 102q-46 -102 -143 -102q-74 0 -119 56.5t-45 149.5q0 59 19 107.5t55.5 77t87.5 28.5q98 0 133 -102q42 92 124 101v91h-458v67h679v-67h-146zM259.5 164
q26.5 42 32.5 108q-14 61 -36 97.5t-62 36.5q-43 0 -65 -43.5t-22 -104.5t23 -98.5t62 -37.5q41 0 67.5 42zM531 165.5q22 43.5 22 103.5q0 61 -23 99t-62 38q-41 0 -67.5 -42.5t-32.5 -108.5q15 -61 37 -97t61 -36q43 0 65 43.5z" />
    <glyph glyph-name="uni0934" unicode="&#x934;" horiz-adv-x="658" 
d="M0 0zM523 563v-100q51 -19 79.5 -70.5t28.5 -125.5q0 -59 -19 -107.5t-55.5 -77t-87.5 -28.5q-96 0 -133 102q-46 -102 -143 -102q-74 0 -119 56.5t-45 149.5q0 59 19 107.5t55.5 77t87.5 28.5q98 0 133 -102q42 92 124 101v91h-458v67h679v-67h-146zM259.5 164
q26.5 42 32.5 108q-14 61 -36 97.5t-62 36.5q-43 0 -65 -43.5t-22 -104.5t23 -98.5t62 -37.5q41 0 67.5 42zM531 165.5q22 43.5 22 103.5q0 61 -23 99t-62 38q-41 0 -67.5 -42.5t-32.5 -108.5q15 -61 37 -97t61 -36q43 0 65 43.5zM380 18zM289 18h91v-99h-91v99z" />
    <glyph glyph-name="uni0935" unicode="&#x935;" horiz-adv-x="434" 
d="M444 563h-86v-563h-76v146h-3q-39 -39 -106 -39q-70 0 -110.5 46t-40.5 141q0 94 40.5 139.5t110.5 45.5q69 0 106 -37h3v121h-292v67h454v-67zM282 282v23q0 108 -91 108q-46 0 -68 -25.5t-22 -82.5v-23q0 -57 22 -82t68 -25q91 0 91 107z" />
    <glyph glyph-name="uni0936" unicode="&#x936;" horiz-adv-x="554" 
d="M289.5 377q-22.5 -47 -61.5 -77.5t-87 -38.5l165 -261h-81l-167 268v48h21q77 0 116.5 44.5t39.5 114.5q0 42 -15 70.5t-46 28.5q-27 0 -40 -19t-13 -47v-26h-72q-4 12 -4 38q0 58 36 90t92 32q65 0 102 -44t37 -118q0 -56 -22.5 -103zM565 563h-88v-563h-75v563h-66v67
h229v-67z" />
    <glyph glyph-name="uni0937" unicode="&#x937;" horiz-adv-x="440" 
d="M451 563h-86v-563h-76v180q-37 -35 -98 -35q-64 0 -99.5 39t-35.5 111v268h-65v67h460v-67zM132 560l156 -287q1 1 1 3v287h-157v-3zM152.5 236q20.5 -23 58.5 -23q32 0 52 16l-131 239v-167q0 -42 20.5 -65z" />
    <glyph glyph-name="uni0938" unicode="&#x938;" horiz-adv-x="536" 
d="M556 563h-86v-563h-76v256h-273l125 -256h-81l-124 268v48h51q8 0 22 2h2q33 6 50.5 30.5t17.5 65.5v149h-194v67h566v-67zM394 563h-135v-142q0 -63 -23 -103h158v245z" />
    <glyph glyph-name="uni0939" unicode="&#x939;" horiz-adv-x="444" 
d="M161.5 393q-17.5 -13 -17.5 -36q0 -35 21.5 -47t53.5 -14q6 1 19 1q88 0 132 -37.5t44 -111.5q0 -19 -2 -35h-77v36q0 41 -24 64t-67 23q-48 0 -75.5 -25.5t-27.5 -79.5q0 -60 33 -88.5t102 -28.5h63v-59q-29 -8 -64 -8q-106 0 -159 46.5t-53 142.5q0 40 15 71.5t42 52.5
q-56 29 -56 98q0 56 39 85t103 29h74v91h-290v67h464v-67h-98v-157h-151q-26 0 -43.5 -13z" />
    <glyph glyph-name="uni0958" unicode="&#x958;" horiz-adv-x="638" 
d="M0 0zM350 432h3q16 21 42.5 34t61.5 13q67 0 105.5 -48.5t38.5 -135.5q0 -89 -40.5 -138.5t-111.5 -49.5q-9 0 -25 2v66h12q44 0 65 25t21 82v23q0 57 -20.5 82.5t-63.5 25.5q-45 0 -66.5 -26.5t-21.5 -81.5v-305h-76v156h-4q-36 -49 -105 -49q-65 0 -104 46.5t-39 140.5
q0 93 39.5 139t105.5 46q70 0 103 -47h4v131h-284v67h658v-67h-298v-131zM274 282v23q0 108 -87 108q-44 0 -65 -25.5t-21 -82.5v-23q0 -57 21 -82t65 -25q87 0 87 107zM175 69zM84 69h91v-99h-91v99z" />
    <glyph glyph-name="uni0959" unicode="&#x959;" horiz-adv-x="678" 
d="M0 0zM688 563h-86v-563h-76v93q-27 -28 -77 -42t-112 -14q-144 0 -227 76.5t-83 223.5h51q45 0 69 27.5t24 80.5v118h-181v67h698v-67zM526 563h-281v-111q0 -82 -34.5 -126.5t-100.5 -48.5q17 -90 76 -132.5t154 -42.5q166 0 186 104h-3q-15 -17 -38 -28t-53 -11
q-60 0 -96 40t-36 122q0 80 36 119.5t96 39.5q58 0 91 -38h3v113zM526 337q0 84 -74 84q-36 0 -54.5 -20t-18.5 -64v-18q0 -44 18.5 -64t54.5 -20q74 0 74 84v18zM124 83zM33 83h91v-99h-91v99z" />
    <glyph glyph-name="uni095A" unicode="&#x95a;" horiz-adv-x="564" 
d="M0 0zM574 563h-86v-563h-76v563h-136v-288q0 -59 -35 -94.5t-94 -35.5q-54 0 -91 37.5t-37 92.5q0 59 34.5 94.5t93.5 35.5h54v158h-211v67h584v-67zM186.5 229q14.5 17 14.5 46v61h-54q-25 0 -39 -16.5t-14 -44.5q0 -27 14.5 -45t38.5 -18q25 0 39.5 17zM193 88zM102 88
h91v-99h-91v99z" />
    <glyph glyph-name="uni095B" unicode="&#x95b;" horiz-adv-x="519" 
d="M0 0zM529 563h-86v-563h-76v364h-73v-116q0 -68 -36 -104.5t-101 -36.5q-66 0 -101 36t-35 105v185h75v-190q0 -32 16 -49.5t45 -17.5q28 0 44.5 17.5t16.5 49.5v190h149v130h-377v67h539v-67zM203 29zM112 29h91v-99h-91v99z" />
    <glyph glyph-name="uni095C" unicode="&#x95c;" horiz-adv-x="422" 
d="M0 0zM151 391q-20 -15 -20 -44q0 -24 15.5 -37.5t43.5 -13.5h39q70 0 110 -37.5t40 -103.5q0 -72 -46 -109t-124 -37q-86 0 -129.5 41.5t-43.5 101.5q0 12 1 20h79v-10q0 -43 26 -64.5t68 -21.5q40 0 65 20t25 60q0 35 -20 53.5t-56 18.5h-31q-141 0 -141 119
q0 65 41.5 95t113.5 30h68v91h-285v67h443v-67h-83v-157h-147q-32 0 -52 -15zM254 -42zM163 -42h91v-99h-91v99z" />
    <glyph glyph-name="uni095D" unicode="&#x95d;" horiz-adv-x="435" 
d="M0 0zM138 374.5q-23 -31.5 -23 -95.5v-33q0 -77 44 -107q-12 23 -12 54q0 52 30.5 84t88.5 32t92 -32t34 -85q0 -64 -45 -101t-112 -37q-94 0 -146 56t-52 164q0 198 178 198h48v91h-273v67h455v-67h-107v-157h-123q-54 0 -77 -31.5zM221.5 226.5
q-14.5 -15.5 -14.5 -44.5q0 -30 14.5 -45t41.5 -15q24 0 38.5 18t14.5 47q0 27 -14 41t-40 14t-40.5 -15.5zM280 3zM189 3h91v-99h-91v99z" />
    <glyph glyph-name="uni095E" unicode="&#x95e;" horiz-adv-x="652" 
d="M0 0zM364 432h3q16 21 42.5 34t61.5 13q67 0 105.5 -48.5t38.5 -135.5q0 -89 -40.5 -138.5t-111.5 -49.5q-9 0 -25 2v66h12q44 0 65 25t21 82v23q0 57 -20.5 82.5t-63.5 25.5q-45 0 -66.5 -26.5t-21.5 -81.5v-305h-76v180q-37 -35 -98 -35q-64 0 -99.5 39t-35.5 111v268
h-65v67h672v-67h-298v-131zM131 563v-262q0 -42 20.5 -65t58.5 -23q31 0 52.5 16.5t25.5 46.5v287h-157zM105 94zM14 94h91v-99h-91v99z" />
    <glyph glyph-name="uni095F" unicode="&#x95f;" horiz-adv-x="491" 
d="M0 0zM501 563h-86v-563h-76v186q-20 -21 -51 -31t-66 -10q-87 0 -136 59t-49 169q57 0 88 25.5t31 66.5q0 40 -24.5 69t-58.5 29h-83v67h511v-67zM310.5 241.5q28.5 32.5 28.5 99.5v222h-150q21 -17 33 -44.5t12 -57.5q0 -53 -30.5 -90t-82.5 -53q20 -109 112 -109
q49 0 77.5 32.5zM134 82zM43 82h91v-99h-91v99z" />
    <glyph glyph-name="uni0979" unicode="&#x979;" horiz-adv-x="519" 
d="M0 0zM529 563h-86v-563h-76v364h-73v-116q0 -68 -36 -104.5t-101 -36.5q-66 0 -101 36t-35 105v185h75v-190q0 -32 16 -49.5t45 -17.5q28 0 44.5 17.5t16.5 49.5v190h149v130h-377v67h539v-67zM102 29zM11 29h91v-99h-91v99zM316 29zM225 29h91v-99h-91v99zM210 -54z
M119 -54h91v-99h-91v99z" />
    <glyph glyph-name="uni097A" unicode="&#x97a;" horiz-adv-x="491" 
d="M501 563h-86v-563h-76v186q-20 -21 -51 -31t-66 -10q-87 0 -136 59t-49 169q57 0 88 25.5t31 66.5q0 40 -24.5 69t-58.5 29h-83v67h511v-67zM197 563l14 -24q8 -14 11 -21l115 -210q2 20 2 33v222h-142zM318 251l-91 165q-11 -36 -38.5 -61t-67.5 -37q20 -109 112 -109
q57 0 85 42z" />
    <glyph glyph-name="uni097B" unicode="&#x97b;" horiz-adv-x="564" 
d="M574 563h-86v-563h-428v58h352v505h-136v-299q0 -59 -35 -94.5t-94 -35.5q-54 0 -91 37.5t-37 92.5q0 59 34.5 94.5t93.5 35.5h54v169h-211v67h584v-67zM186.5 219q14.5 17 14.5 45v62h-54q-25 0 -39 -16.5t-14 -45.5q0 -26 15 -44t38 -18q25 0 39.5 17z" />
    <glyph glyph-name="uni097C" unicode="&#x97c;" horiz-adv-x="518" 
d="M528 563h-86v-563h-422v58h346v306h-73v-103q0 -67 -36 -103.5t-101 -36.5q-66 0 -101 36t-35 104v172h75v-176q0 -33 15.5 -50.5t45.5 -17.5q28 0 44.5 17.5t16.5 50.5v176h149v130h-376v67h538v-67z" />
    <glyph glyph-name="uni097E" unicode="&#x97e;" horiz-adv-x="412" 
d="M138.5 395q-17.5 -11 -17.5 -32q0 -39 59 -39h46q67 0 104.5 -35t37.5 -98q0 -69 -45.5 -104.5t-122.5 -35.5q-87 0 -130.5 38t-43.5 94q0 13 1 20h79v-10q0 -38 26 -56.5t69 -18.5q40 0 64 18t24 55q0 31 -18 48t-51 17h-37q-141 0 -141 107q0 57 38.5 83t105.5 26h78
v91h-274v67h432v-67h-82v-157h-158q-26 0 -43.5 -11zM36 0h322v-58h-322v58z" />
    <glyph glyph-name="uni097F" unicode="&#x97f;" horiz-adv-x="454" 
d="M465 563h-86v-563h-338v58h262v114h-3q-18 -17 -47 -28t-66 -11q-73 0 -115 44t-42 134q0 89 42.5 133t114.5 44q73 0 113 -38h3v113h-313v67h475v-67zM303 298v23q0 100 -97 100q-11 0 -29 -2l104 -192q22 23 22 71zM132.5 223.5q23.5 -22.5 73.5 -22.5q23 0 36 4
l-106 196q-27 -24 -27 -80v-23q0 -52 23.5 -74.5z" />
    <glyph glyph-name="uni092F.post.01" horiz-adv-x="501" 
d="M512 563h-86v-563h-1v-183h-76v101q-20 -24 -51 -36t-69 -12q-89 0 -140.5 55.5t-51.5 157.5q44 0 81.5 16.5t37.5 66.5q0 29 -17 43.5t-44 14.5h-39v66h38q64 0 102.5 -30.5t38.5 -91.5q0 -51 -28 -89t-84 -52q23 -93 118 -93q51 0 79.5 32.5t28.5 100.5h1v496h-350v67
h512v-67z" />
    <glyph glyph-name="uni0932.loclMAR" horiz-adv-x="592" 
d="M454 563v-117q51 -13 79.5 -65.5t28.5 -132.5q0 -128 -41 -188t-128 -60q-12 0 -22 2v65h17q51 0 73.5 40.5t22.5 128.5q0 74 -18 111.5t-58 37.5q-39 0 -56 -32t-17 -83v-70h-78v70q0 51 -17 83t-56 32q-40 0 -58 -37.5t-18 -111.5q0 -88 22.5 -128.5t73.5 -40.5h16v-65
q-10 -2 -21 -2q-87 0 -128 60t-41 188q0 93 38 148t106 55q47 0 77 -25t43 -68h3q10 33 30.5 56t51.5 32v117h-389v67h612v-67h-148z" />
    <glyph glyph-name="uni0936.loclMAR" horiz-adv-x="564" 
d="M574 563h-86v-563h-76v563h-175v-60q51 -10 78.5 -49t27.5 -98q0 -80 -49 -128t-136 -54l42 -174h-75l-64 266h75l8 -33q59 5 90.5 40t31.5 88q0 33 -15 55.5t-46 22.5q-27 0 -40 -19.5t-13 -47.5v-26h-72q-4 14 -4 39q0 48 24.5 78t66.5 39v61h-177v67h584v-67z" />
    <glyph glyph-name="uni091D.loclNEP" horiz-adv-x="800" 
d="M512 432h3q16 21 42.5 34t61.5 13q67 0 105.5 -48.5t38.5 -135.5q0 -89 -40.5 -138.5t-111.5 -49.5q-9 0 -25 2v66h12q44 0 65 25t21 82v23q0 57 -20.5 82.5t-63.5 25.5q-45 0 -66.5 -26.5t-21.5 -81.5v-305h-75v269h-140v-52q0 -54 -33.5 -87.5t-89.5 -33.5
q-52 0 -88.5 35.5t-36.5 85.5q0 54 34.5 87t90.5 33h49v173q0 64 -52 64q-26 0 -38.5 -19.5t-12.5 -46.5v-31h-72q-4 18 -4 40q0 59 37 92t95 33q59 0 90 -32.5t31 -90.5v-182h139v100h1v126h-91v67h464v-67h-298v-131zM223 269h-49q-22 0 -36 -14t-14 -38q0 -22 15 -38
t35 -16q22 0 35.5 15t13.5 39v52z" />
    <glyph glyph-name="uni0979.loclNEP" horiz-adv-x="539" 
d="M331 563v-130h17q78 0 119.5 -42.5t41.5 -116.5q0 -78 -42.5 -121t-122.5 -52l24 -101h-75l-45 192h74l7 -31q52 8 77.5 37.5t25.5 77.5q0 42 -21 65.5t-62 23.5h-19q-7 -67 -46 -101.5t-105 -34.5q-74 0 -111.5 42t-37.5 121q0 26 4 41h76v-29q0 -53 18 -81t53 -28
t53 27.5t18 79.5v161h-262v67h559v-67h-218z" />
    <glyph glyph-name="uni092F.post" horiz-adv-x="404" 
d="M414 563h-86v-563h-76v101q-19 -24 -50.5 -36t-70.5 -12q-84 0 -132.5 58t-48.5 166q40 0 74 16t34 63q0 30 -17 45.5t-44 15.5h-146v67h145q64 0 102.5 -32t38.5 -94q0 -50 -25.5 -87t-77.5 -51q20 -102 110 -102q51 0 79.5 32t28.5 100v313h-350v67h512v-67z" />
    <glyph glyph-name="uni0935.post" horiz-adv-x="408" 
d="M250 85h3v131h73v-409h-73v53h-3q-15 -17 -38.5 -28t-53.5 -11q-60 0 -96 38.5t-36 113.5q0 74 36 112t96 38q59 0 92 -38zM105 -19v-17q0 -77 74 -77q36 0 55 20t19 57v17q0 37 -19 57t-55 20q-74 0 -74 -77z" />
    <glyph glyph-name="uni0928.post2" horiz-adv-x="0" 
d="M-100 193l-205 -108q41 -26 41 -81q0 -43 -29 -71.5t-76 -28.5q-48 0 -76.5 29t-28.5 73q0 34 18.5 59t58.5 47l297 162v-81zM-342.5 -23q9.5 10 9.5 29q0 17 -9 28.5t-27 20.5l-4 -2q-33 -16 -33 -47q0 -18 10 -28.5t27 -10.5t26.5 10z" />
    <glyph glyph-name="uni0930.post2" horiz-adv-x="0" 
d="M-332 -62v92l233 198v-79z" />
    <glyph glyph-name="uni0915094D0915" horiz-adv-x="630" 
d="M358 458h3q21 14 43 22t54 8q65 0 107.5 -37t42.5 -108q0 -35 -13 -61.5t-37 -41.5q50 -37 50 -118q0 -72 -37 -109.5t-93 -37.5q-12 0 -20 2v66h8q64 0 64 75q0 85 -85 85q-41 0 -62 -19t-25 -58v-126h-1v-52h-75v58h-4q-17 -14 -45 -22.5t-56 -8.5q-64 0 -105.5 36
t-41.5 105q0 38 12.5 66.5t35.5 46.5q-48 42 -48 115q0 67 39.5 105.5t105.5 38.5q31 0 58 -8.5t45 -21.5h4v105h-292v67h651v-67h-283v-105zM129 401.5q-21 -19.5 -21 -61.5q0 -43 20.5 -61t64.5 -18q46 0 67.5 18t21.5 54v15q0 37 -21 55t-65 18q-46 0 -67 -19.5zM358 341
v-102h3q17 15 39 22.5t54 7.5q14 0 20 -1q26 2 41 17t15 54q0 82 -78 82q-85 0 -94 -80zM256.5 66q25.5 24 25.5 63v95h-4q-34 -31 -92 -31l-17 1q-29 -1 -45 -21t-16 -53q0 -39 22 -58.5t59 -19.5q42 0 67.5 24z" />
    <glyph glyph-name="uni0915094D0924" horiz-adv-x="705" 
d="M433 388h3q16 17 42.5 27t60.5 10q68 0 106.5 -46t38.5 -140q0 -93 -44 -139.5t-113 -46.5q-3 0 -21 2v66h13q44 0 65 25t21 82v23q0 58 -21 83t-65 25q-86 0 -86 -108v-251h-76v371h-117q-78 0 -78 -104q0 -40 19.5 -100.5t76.5 -166.5h-82q-56 108 -74.5 168.5
t-18.5 100.5q0 65 27 102h-96v69h343v123h-367v67h726v-67h-283v-175z" />
    <glyph glyph-name="uni0915094D0930" horiz-adv-x="636" 
d="M349 432h3q16 21 42.5 34t61.5 13q67 0 105.5 -48.5t38.5 -135.5q0 -89 -40.5 -138.5t-111.5 -49.5q-9 0 -25 2v66h12q44 0 65 25t21 82v23q0 57 -20.5 82.5t-63.5 25.5q-45 0 -66.5 -26.5t-21.5 -81.5v-305h-76v166h-1v6l-248 -182v82l100 72q-49 12 -76 53t-27 114
q0 90 39 133.5t107 43.5q35 0 61 -10.5t41 -27.5h3v6h1v107h-283v67h657v-67h-298v-131zM121 224q21 -23 65 -23q86 0 86 97v23q0 100 -86 100q-44 0 -65 -23.5t-21 -76.5v-23q0 -51 21 -74z" />
    <glyph glyph-name="uni0915094D0932" horiz-adv-x="1123" 
d="M1134 563h-86v-563h-76v278q0 107 -76 107q-38 0 -55 -32t-17 -83v-70h-78v70q0 51 -17 83t-56 32q-76 0 -76 -144q0 -91 40 -132.5t129 -41.5h16v-63q-15 -4 -35 -4q-112 0 -170 61.5t-58 191.5q0 25 3 47v5q0 57 -20.5 82.5t-63.5 25.5q-45 0 -66.5 -26.5t-21.5 -81.5
v-305h-76v156h-4q-36 -49 -105 -49q-65 0 -104 46.5t-39 140.5q0 93 39.5 139t105.5 46q70 0 103 -47h4v131h-293v67h1153v-67zM972 427v136h-622v-131h3q16 21 42.5 34t61.5 13t62.5 -19t44.5 -55q38 46 99 46q47 0 77 -25t43 -68h3q28 93 116 93q40 0 70 -24zM274 282v23
q0 108 -87 108q-44 0 -65 -25.5t-21 -82.5v-23q0 -57 21 -82t65 -25q87 0 87 107z" />
    <glyph glyph-name="uni0915094D0935" horiz-adv-x="646" 
d="M358 432h3q16 21 42.5 34t61.5 13q67 0 105.5 -48.5t38.5 -135.5q0 -89 -40.5 -138.5t-111.5 -49.5q-9 0 -25 2v66h12q44 0 65 25t21 82v23q0 57 -20.5 82.5t-63.5 25.5q-45 0 -66.5 -26.5t-21.5 -81.5v-305h-1v-52h-75v58h-4q-17 -14 -45 -22.5t-56 -8.5
q-64 0 -105.5 36t-41.5 105q0 38 12.5 66.5t35.5 46.5q-48 42 -48 115q0 67 39.5 105.5t105.5 38.5q31 0 58 -8.5t45 -21.5h4v105h-292v67h666v-67h-298v-131zM129 401.5q-21 -19.5 -21 -61.5q0 -43 20.5 -61t64.5 -18q46 0 67.5 18t21.5 54v15q0 37 -21 55t-65 18
q-46 0 -67 -19.5zM256.5 66q25.5 24 25.5 63v95h-4q-34 -31 -92 -31l-17 1q-29 -1 -45 -21t-16 -53q0 -39 22 -58.5t59 -19.5q42 0 67.5 24z" />
    <glyph glyph-name="uni0915094D0937" horiz-adv-x="604" 
d="M616 563h-86v-563h-76v361h-205q-17 0 -25 1q-105 -80 -105 -164q0 -41 24.5 -59t63.5 -18q26 0 47.5 11t32.5 32l-13 53h74l52 -217h-74l-22 91q-40 -37 -107 -37q-69 0 -113 36.5t-44 103.5q0 105 107 191q-37 21 -58 55t-21 77q0 55 34 90t94 35t93.5 -35.5
t33.5 -89.5q0 -49 -36 -90h167v136h-86v67h248v-67zM158.5 559.5q-13.5 -15.5 -13.5 -42.5q0 -32 15.5 -53.5t44.5 -30.5q18 14 29.5 36t11.5 48q0 27 -13 42.5t-37 15.5t-37.5 -15.5z" />
    </font>
</defs>
</svg>
